Loading...
Error

Скачать Годзилла / Godzilla (Роланд Эммерих) [1998, фантастика, боевик, триллер, BDRip-AVC] [Dub]+[MVO]+[Sub Rus, Eng]x2 торрент без регистрации

Статистика раздачи
Размер:  1,08 GB   |    Скачан:  13 раз
Сидов:  1  [  0 KB/s  ]  
 
 
 
Автор Сообщение

Marsianka

[] 

Информация о фильме
Название: Годзилла
Оригинальное название: Godzilla
Год выхода: 1998
Жанр: фантастика, боевик, триллер
Режиссер: Роланд Эммерих
В ролях: Мэттью Бродерик, Жан Рено, Мария Питилло, Хэнк Азария, Кевин Данн, Майкл Лернер, Гарри Ширер, Арабелла Филд, Викки Льюис, Даг Сэвант

О фильме :
Из тихоокеанских джунглей на Нью — Йорк надвинулась страшная катастрофа. На глазах у потрясенных жителей рушатся небоскребы, переворачиваются автобусы, уходят под землю целые кварталы. Но это не ураган и не землетрясение. Это — Годзилла, самое ужасное чудовище в истории. Для него человеческая цивилизация — лишь жалкий муравейник, дома — спичечные коробки, вертолеты — назойливые стрекозы. Мегаполису грозит полное уничтожение. Армия, оснащенная по последнему слову техники, не в силах противостоять гигантской ящерице. Небольшой группе смельчаков предстоит выяснить, зачем Годзилла пришел в Нью — Йорк. Возможно, тогда им удастся спасти город…



Страна: США, Япония
Студия: Centropolis Film Productions, TriStar Pictures, Toho Film (Eiga) Co. Ltd.
Продолжительность: 02:18:43
Перевод 1: Профессиональный (полное дублирование) - CEE
Перевод 2: Профессиональный (многоголосый, закадровый) - ОРТ

Файл
Формат: MKV
Качество: BDRip-AVC (BDRemux 1080p)
Видео: MPEG-4 AVC, 768x320, ~ 966 Кбит/с
Аудио 1: AAC-HE, 2 ch, ~ 76 Кбит/с | CEE
Аудио 2: AAC-HE, 2 ch, ~ 76 Кбит/с | ОРТ
Субтитры: Русские (форс,полные), английские
Общее
Уникальный идентификатор : 205734852472562958605957687274955672880 (0x9AC7175F4FF1688DA195FC9A89B90D30)
Полное имя : D:MOVIESGodzilla.1998.ExKinoRay.mkv
Формат : Matroska
Версия формата : Version 4 / Version 2
Размер файла : 1,08 Гбайт
Продолжительность : 2 ч. 18 м.
Общий поток : 1119 Кбит/сек
Дата кодирования : UTC 2018-03-21 05:31:52
Программа кодирования : mkvmerge v15.0.0 ('Duel with the Devil') 64-bit
Библиотека кодирования : libebml v1.3.5 + libmatroska v1.4.5

Видео
Идентификатор : 1
Формат : AVC
Формат/Информация : Advanced Video Codec
Профиль формата : High@L4.1
Параметр CABAC формата : Да
Параметр RefFrames формата : 10 кадров
Идентификатор кодека : V_MPEG4/ISO/AVC
Продолжительность : 2 ч. 18 м.
Битрейт : 966 Кбит/сек
Ширина : 768 пикселей
Высота : 320 пикселей
Соотношение сторон : 2,40:1
Режим частоты кадров : Постоянный
Частота кадров : 23,976 (24000/1001) кадра/сек
Цветовое пространство : YUV
Субдискретизация насыщенности : 4:2:0
Битовая глубина : 8 бит
Тип развёртки : Прогрессивная
Бит/(Пиксели*Кадры) : 0.164
Размер потока : 958 Мбайт (86%)
Библиотека кодирования : x264 core 155 r2901 7d0ff22
Настройки программы : cabac=1 / ref=10 / deblock=1:-2:-2 / analyse=0x3:0x133 / me=umh / subme=11 / psy=1 / psy_rd=1.00:0.08 / mixed_ref=1 / me_range=32 / chroma_me=1 / trellis=2 / 8x8dct=1 / cqm=0 / deadzone=21,11 / fast_pskip=0 / chroma_qp_offset=-3 / threads=6 / lookahead_threads=1 / sliced_threads=0 / nr=0 / decimate=0 / interlaced=0 / bluray_compat=0 / constrained_intra=0 / bframes=10 / b_pyramid=2 / b_adapt=2 / b_bias=0 / direct=3 / weightb=1 / open_gop=0 / weightp=2 / keyint=240 / keyint_min=23 / scenecut=40 / intra_refresh=0 / rc_lookahead=40 / rc=2pass / mbtree=1 / bitrate=966 / ratetol=1.0 / qcomp=0.60 / qpmin=0 / qpmax=69 / qpstep=4 / cplxblur=20.0 / qblur=0.5 / vbv_maxrate=50000 / vbv_bufsize=62500 / nal_hrd=none / filler=0 / ip_ratio=1.40 / aq=3:1.00
Default : Да
Forced : Нет

Аудио #1
Идентификатор : 2
Формат : AAC
Формат/Информация : Advanced Audio Codec
Профиль формата : HE-AAC / LC
Идентификатор кодека : A_AAC
Продолжительность : 2 ч. 18 м.
Битрейт : 76,0 Кбит/сек
Каналы : 2 канала
Расположение каналов : Front: L R
Частота : 48,0 КГц / 24,0 КГц
Частота кадров : 23,438 кадра/сек (1024 SPF)
Метод сжатия : С потерями
Задержка видео : 31 мс.
Размер потока : 75,4 Мбайт (7%)
Заголовок : Dub
Язык : Russian
Default : Да
Forced : Нет

Аудио #2
Идентификатор : 3
Формат : AAC
Формат/Информация : Advanced Audio Codec
Профиль формата : HE-AAC / LC
Идентификатор кодека : A_AAC
Продолжительность : 2 ч. 18 м.
Битрейт : 76,0 Кбит/сек
Каналы : 2 канала
Расположение каналов : Front: L R
Частота : 48,0 КГц / 24,0 КГц
Частота кадров : 23,438 кадра/сек (1024 SPF)
Метод сжатия : С потерями
Задержка видео : 31 мс.
Размер потока : 75,4 Мбайт (7%)
Язык : Russian
Default : Нет
Forced : Нет

Текст #1
Идентификатор : 4
Формат : UTF-8
Идентификатор кодека : S_TEXT/UTF8
Идентификатор кодека/Информация : UTF-8 Plain Text
Продолжительность : 2 ч. 5 м.
Битрейт : 2 бит/сек
ElementCount : 48
Размер потока : 2,01 Кбайт (0%)
Заголовок : FORCED
Язык : Russian
Default : Да
Forced : Да

Текст #2
Идентификатор : 5
Формат : UTF-8
Идентификатор кодека : S_TEXT/UTF8
Идентификатор кодека/Информация : UTF-8 Plain Text
Продолжительность : 2 ч. 17 м.
Битрейт : 52 бит/сек
ElementCount : 799
Размер потока : 53,0 Кбайт (0%)
Язык : Russian
Default : Нет
Forced : Нет

Текст #3
Идентификатор : 6
Формат : UTF-8
Идентификатор кодека : S_TEXT/UTF8
Идентификатор кодека/Информация : UTF-8 Plain Text
Продолжительность : 2 ч. 9 м.
Битрейт : 44 бит/сек
ElementCount : 1230
Размер потока : 42,5 Кбайт (0%)
Язык : English
Default : Нет
Forced : Нет

Текст #4
Идентификатор : 7
Формат : UTF-8
Идентификатор кодека : S_TEXT/UTF8
Идентификатор кодека/Информация : UTF-8 Plain Text
Продолжительность : 2 ч. 1 м.
Битрейт : 47 бит/сек
ElementCount : 1042
Размер потока : 42,6 Кбайт (0%)
Язык : English
Default : Нет
Forced : Нет
Релиз от:



Скачать Годзилла.Godzilla.(Роланд.Эммерих).[1998.фантастика.боевик.триллер.BDRip-AVC].[Dub]+[MVO]+[Sub.Rus.Eng]x2.torrent без регистрации
Золото ЗОЛОТАЯ РАЗДАЧА! СКАЧАННОЕ НЕ ЗАСЧИТЫВАЕТСЯ! Золото
Дата: Зарегистрирован   [ Тип: внутренний ] Как тут cкачать?
MAGNET ссылка
MAGNET ссылка


Скачать .torrent

12 KB

Статус: проверено DHT
Скачан: торрент - 13 раз, раздача полностью - 1 раз
Размер: 1,08 GB
Оценка:  - (Голосов: 0)
Поблагодарили: 0
Поделиться ссылкой на эту раздачу с друзьями:
В контактеFacebookОдноклассникиTwitterLivejournalМой МирLiveinternet
 

 
Показать сообщения:    


Вы не можете начинать темы
Вы не можете отвечать на сообщения
Вы не можете редактировать свои сообщения
Вы не можете удалять свои сообщения
Вы не можете голосовать в опросах
Вы не можете прикреплять файлы к сообщениям
Вы можете скачивать файлы