Loading...
Error

Скачать Бэтмен: Готэм в газовом свете / Batman: Gotham by Gaslight (Сэм Лью) [2018, мультфильм, фэнтези, боевик, криминал, детектив, BDRip 720p] [MVO] (HDrezka Studio) торрент без регистрации

Статистика раздачи
Размер:  3,69 GB   |    Скачан:  78 раз
Сидов:  1  [  0 KB/s  ]  
 
 
 
Автор Сообщение

leon030982

[] 

Бэтмен: Готэм в газовом свете / Batman: Gotham by Gaslight

Год выхода: 2018
Жанр: мультфильм, фэнтези, боевик, криминал, детектив
Страна: США
Студия: DC Entertainment
Продолжительность: 01:17:02
Перевод: Профессиональный (многоголосый, закадровый) HDrezka Studio

Режиссер: Сэм Лью

В ролях: Дженнифер Карпентер, Тара Стронг, Брюс Гринвуд, Скотт Гордон-Паттерсон, Кари Уорер, Грей ДеЛайл, Джон Ди Маджио, Энтони Хэд, Линкольн Мелчер, Юрий Ловенталь

О фильме:

Готэм в сеттинге Викторианской эпохи. В городе регулярно происходят зверские убийства женщин легкого поведения. И пока полиция нехотя ищет маньяка, на его след нападает Бэтмен. Ведь по слухам нападения на женщин совершает легендарный Джек Потрошитель...



Файл
Кодек: MPEG-4 AVC
Качество: BDRip 720p
Видео: 1280x720 (16:9), 23.976 fps, 4571 kbps
Аудио RUS: 48.0 kHz, AC3 Dolby Digital, 2 ch, ~384 kbps - MVO
Аудио RUS: 48.0 kHz, AC3 Dolby Digital, 6 ch, ~192 kbps - MVO
Аудио ENG: 48.0 kHz, DTS, 3/2 (L,C,R,l,r) + LFE ch, 1509 kbps
Субтитры: Русские, английские
General
Unique ID : 74013375439498918701509613134960700994 (0x37AE75259009EDF1FA689AEAB2C8AE42)
Complete name : E:\Batman.Gotham.by.Gaslight.2018.HDrezka-Studio.by WSM.mkv
Format : Matroska
Format version : Version 4 / Version 2
File size : 3.69 GiB
Duration : 1 h 17 min
Overall bit rate : 6 851 kb/s
Movie name : Batman.Gotham.by.Gaslight
Encoded date : UTC 2018-03-22 09:45:07
Writing application : mkvmerge v21.0.0 ('Tardigrades Will Inherit The Earth') 64-bit
Writing library : libebml v1.3.5 + libmatroska v1.4.8
Cover : Yes
Attachments : cover.jpg / cover_land.jpg / small_cover.jpg / small_cover_land.jpg

Video
ID : 1
Format : AVC
Format/Info : Advanced Video Codec
Format profile : High@L4.1
Format settings : CABAC / 5 Ref Frames
Format settings, CABAC : Yes
Format settings, RefFrames : 5 frames
Codec ID : V_MPEG4/ISO/AVC
Duration : 1 h 17 min
Bit rate : 4 571 kb/s
Width : 1 280 pixels
Height : 720 pixels
Display aspect ratio : 16:9
Frame rate mode : Constant
Frame rate : 23.976 (24000/1001) FPS
Color space : YUV
Chroma subsampling : 4:2:0
Bit depth : 8 bits
Scan type : Progressive
Bits/(Pixel*Frame) : 0.207
Stream size : 2.39 GiB (65%)
Writing library : x264 core 155 r2901 7d0ff22
Encoding settings : cabac=1 / ref=5 / deblock=1:-1:-1 / analyse=0x3:0x133 / me=umh / subme=8 / psy=1 / psy_rd=1.00:0.15 / mixed_ref=1 / me_range=16 / chroma_me=1 / trellis=1 / 8x8dct=1 / cqm=0 / deadzone=21,11 / fast_pskip=0 / chroma_qp_offset=-4 / threads=22 / lookahead_threads=3 / sliced_threads=0 / nr=0 / decimate=1 / interlaced=0 / bluray_compat=0 / constrained_intra=0 / bframes=3 / b_pyramid=2 / b_adapt=2 / b_bias=0 / direct=3 / weightb=1 / open_gop=0 / weightp=2 / keyint=240 / keyint_min=23 / scenecut=40 / intra_refresh=0 / rc_lookahead=50 / rc=2pass / mbtree=1 / bitrate=4571 / ratetol=1.0 / qcomp=0.60 / qpmin=10 / qpmax=69 / qpstep=4 / cplxblur=20.0 / qblur=0.5 / ip_ratio=1.40 / aq=1:1.00
Language : English
Default : Yes
Forced : No

Audio #1
ID : 2
Format : AC-3
Format/Info : Audio Coding 3
Format settings, Endianness : Big
Codec ID : A_AC3
Duration : 1 h 17 min
Bit rate mode : Constant
Bit rate : 384 kb/s
Channel(s) : 6 channels
Channel positions : Front: L C R, Side: L R, LFE
Sampling rate : 48.0 kHz
Frame rate : 31.250 FPS (1536 SPF)
Bit depth : 16 bits
Compression mode : Lossy
Stream size : 212 MiB (6%)
Title : 5.1 [экспериментальная]
Language : Russian
Service kind : Complete Main
Default : Yes
Forced : Yes

Audio #2
ID : 3
Format : AC-3
Format/Info : Audio Coding 3
Format settings, Endianness : Big
Codec ID : A_AC3
Duration : 1 h 17 min
Bit rate mode : Constant
Bit rate : 384 kb/s
Channel(s) : 2 channels
Channel positions : Front: L R
Sampling rate : 48.0 kHz
Frame rate : 31.250 FPS (1536 SPF)
Bit depth : 16 bits
Compression mode : Lossy
Stream size : 212 MiB (6%)
Title : stereo
Language : Russian
Service kind : Complete Main
Default : No
Forced : No

Audio #3
ID : 4
Format : DTS
Format/Info : Digital Theater Systems
Mode : 16
Format settings, Endianness : Big
Codec ID : A_DTS
Duration : 1 h 17 min
Bit rate mode : Constant
Bit rate : 1 509 kb/s
Channel(s) : 6 channels
Channel positions : Front: L C R, Side: L R, LFE
Sampling rate : 48.0 kHz
Frame rate : 93.750 FPS (512 SPF)
Bit depth : 24 bits
Compression mode : Lossy
Stream size : 832 MiB (22%)
Language : English
Default : No
Forced : No

Text #1
ID : 5
Format : VobSub
Muxing mode : zlib
Codec ID : S_VOBSUB
Codec ID/Info : Picture based subtitle format used on DVDs
Language : English
Default : No
Forced : No

Text #2
ID : 6
Format : UTF-8
Codec ID : S_TEXT/UTF8
Codec ID/Info : UTF-8 Plain Text
Language : Russian
Default : Yes
Forced : No

Menu
00:00:00.000 : en:00:00:00.000
00:13:23.177 : en:00:13:23.177
00:21:15.316 : en:00:21:15.316
00:33:37.891 : en:00:33:37.891
00:45:00.865 : en:00:45:00.865
00:53:28.872 : en:00:53:28.872
01:04:41.002 : en:01:04:41.002
01:14:02.271 : en:01:14:02.271



Скачать Бэтмен.Готэм.в.газовом.свете.Batman.Gotham.by.Gaslight.(Сэм.Лью).[2018.мультфильм.фэнтези.боевик.криминал.детектив.BDRip.720p].[MVO].(HDrezka.Studio).torrent без регистрации
Золото ЗОЛОТАЯ РАЗДАЧА! СКАЧАННОЕ НЕ ЗАСЧИТЫВАЕТСЯ! Золото
Дата: Зарегистрирован   [ Тип: внутренний ] Как тут cкачать?
MAGNET ссылка
MAGNET ссылка


Скачать .torrent

19 KB

Статус: проверено DHT
Скачан: торрент - 78 раз, раздача полностью - 89 раз
Размер: 3,69 GB
Оценка:  5 (Голосов: 1)
Поблагодарили: 5
Поделиться ссылкой на эту раздачу с друзьями:
В контактеFacebookОдноклассникиTwitterLivejournalМой МирLiveinternet
 

 
Показать сообщения:    


Вы не можете начинать темы
Вы не можете отвечать на сообщения
Вы не можете редактировать свои сообщения
Вы не можете удалять свои сообщения
Вы не можете голосовать в опросах
Вы не можете прикреплять файлы к сообщениям
Вы можете скачивать файлы