Loading...
Error

Скачать Навострите ваши уши / Prick Up Your Ears (Стивен Фрирз) [1987, драма, биография, BDRemux] [MVO (R5)]+[AVO (А. Карповский)]+[Оригинал Eng]+[Sub Rus, Eng]x2 торрент без регистрации

Статистика раздачи
Размер:  15,71 GB   |    Скачан:  30 раз
Сидов:  1  [  0 KB/s  ]  
 
 
 
Автор Сообщение

Marsianka

[] 

Навострите ваши уши / Prick Up Your Ears

Страна: Великобритания
Жанр: драма, биография
Год выпуска: 1987
Продолжительность: 01:50:00

Режиссер: Стивен Фрирз / Stephen Frears

В ролях: Гэри Олдмэн, Ванесса Рэдгрейв, Альфред Молина , Джулия Уолтерс, Фрэнсис Барбер, Линдсэй Дункан

Описание: О жизни и трагической кончине Джо Ортона, драматурга-гомосексуалиста, чья короткая, но блестящая карьера подарила миру гениальные фарсы «Добыча» («Loot»), «Развлекая мистера Слоуна» («Entertaining Mr Sloane») и «Что видел дворецкий» («What the Butler Saw»).

Он родился в Лейчестере, Англия, и умер в возрасте 34 лет в 1967 году, когда его любовник Кеннет Холлиуэлл проломил ему череп молотком, а потом проглотил две пригоршни нембутала, чтобы покончить собой. Картина начинается с этого мрачного события, затем биография драматурга подается в форме ретроспекции, биограф Джон Лар исследует короткую жизнь Ортона.



Тип релиза: BDRemux 1080p
Контейнер: MKV

Видео: 1920x1080 (16:9), 24.000 fps, AVC, ~18.5 Mbps, 0.371 bits/pixel

Сэмпл
Профессиональный (многоголосый закадровый) R5
Перевод 2: Авторский (одноголосый закадровый) А. Карповский

Субтитры: русские, английские
Оригинальная аудиодорожка: английский
Аудио:Russian, 48.0 KHz, AC3, 2 ch, 192 Kbps - Многоголосый закадровый - R5
Аудио 2: Russian, 48.0 KHz, AC3, 2 ch, 192 Kbps - Авторский - А. Карповский
Аудио 3: 48.0 KHz, DTS-HD MA, 2 ch, 1957 kbps / 24-bit (DTS Core: 2.0 / 48 kHz / 1509 kbps / 24-bit) EngФормат субтитров: softsub (SRT)

Общее
Уникальный идентификатор : 228985447151656553422116242309548697195 (0xAC44FE31F5BC36CEAE17AAF0BEFD666B)
Полное имя : D:Prick.Up.Your.Ears.1987.BDRemux.mkv
Формат : Matroska
Версия формата : Version 4 / Version 2
Размер файла : 15,7 Гбайт
Продолжительность : 1 ч. 50 м.
Режим общего битрейта : Переменный
Общий поток : 20,4 Мбит/сек
Дата кодирования : UTC 2018-03-21 07:27:15
Программа кодирования : mkvmerge v7.9.0 ('Birds') 64bit
Библиотека кодирования : libebml v1.3.1 + libmatroska v1.4.2

Видео
Идентификатор : 1
Формат : AVC
Формат/Информация : Advanced Video Codec
Профиль формата : High@L4.1
Параметр CABAC формата : Да
Параметр RefFrames формата : 3 кадра
Параметр GOP формата : M=3, N=12
Идентификатор кодека : V_MPEG4/ISO/AVC
Продолжительность : 1 ч. 50 м.
Вид битрейта : Переменный
Битрейт : 18,1 Мбит/сек
Максимальный битрейт : 24,2 Мбит/сек
Ширина : 1920 пикселей
Высота : 1080 пикселей
Соотношение сторон : 16:9
Режим частоты кадров : Постоянный
Частота кадров : 24,000 кадра/сек
Стандарт вещания : NTSC
Цветовое пространство : YUV
Субдискретизация насыщенности : 4:2:0
Битовая глубина : 8 бит
Тип развёртки : Прогрессивная
Бит/(Пиксели*Кадры) : 0.364
Размер потока : 13,9 Гбайт (89%)
Default : Нет
Forced : Нет
Цветовой диапазон : Limited
Основные цвета : BT.709
Характеристики трансфера : BT.709
Коэффициенты матрицы : BT.709

Аудио #1
Идентификатор : 2
Формат : AC-3
Формат/Информация : Audio Coding 3
Параметр Endianness формата : Big
Идентификатор кодека : A_AC3
Продолжительность : 1 ч. 49 м.
Вид битрейта : Постоянный
Битрейт : 192 Кбит/сек
Каналы : 2 канала
Расположение каналов : Front: L R
Частота : 48,0 КГц
Частота кадров : 31,250 кадров/сек (1536 SPF)
Битовая глубина : 16 бит
Метод сжатия : С потерями
Размер потока : 151 Мбайт (1%)
Заголовок : Многоголосый закадровый - R5
Язык : Russian
ServiceKind/String : Complete Main
Default : Да
Forced : Нет

Аудио #2
Идентификатор : 3
Формат : AC-3
Формат/Информация : Audio Coding 3
Параметр Endianness формата : Big
Идентификатор кодека : A_AC3
Продолжительность : 1 ч. 50 м.
Вид битрейта : Постоянный
Битрейт : 192 Кбит/сек
Каналы : 2 канала
Расположение каналов : Front: L R
Частота : 48,0 КГц
Частота кадров : 31,250 кадров/сек (1536 SPF)
Битовая глубина : 16 бит
Метод сжатия : С потерями
Размер потока : 151 Мбайт (1%)
Заголовок : Авторский - А. Карповский
Язык : Russian
ServiceKind/String : Complete Main
Default : Нет
Forced : Нет

Аудио #3
Идентификатор : 4
Формат : DTS
Формат/Информация : Digital Theater Systems
Профиль формата : MA / Core
Режим : 16
Параметр Endianness формата : Big
Идентификатор кодека : A_DTS
Продолжительность : 1 ч. 49 м.
Вид битрейта : Переменный / Постоянный
Битрейт : 1920 Кбит/сек / 1509 Кбит/сек
Каналы : 2 канала
Расположение каналов : Front: L R
Частота : 48,0 КГц
Частота кадров : 93,750 кадра/сек (512 SPF)
Битовая глубина : 24 бит
Метод сжатия : Без потерь / Lossy
Размер потока : 1,50 Гбайт (10%)
Язык : English
Default : Нет
Forced : Нет

Текст #1
Идентификатор : 5
Формат : UTF-8
Идентификатор кодека : S_TEXT/UTF8
Идентификатор кодека/Информация : UTF-8 Plain Text
Продолжительность : 1 ч. 46 м.
Битрейт : 98 бит/сек
ElementCount : 873
Размер потока : 76,9 Кбайт (0%)
Язык : Russian
Default : Нет
Forced : Нет

Текст #2
Идентификатор : 6
Формат : UTF-8
Идентификатор кодека : S_TEXT/UTF8
Идентификатор кодека/Информация : UTF-8 Plain Text
Продолжительность : 1 ч. 44 м.
Битрейт : 55 бит/сек
ElementCount : 1277
Размер потока : 42,8 Кбайт (0%)
Язык : English
Default : Да
Forced : Нет

Меню
00:00:00.000 : en:00:00:00.000
00:07:30.000 : en:00:07:30.000
00:16:34.333 : en:00:16:34.333
00:26:26.000 : en:00:26:26.000
00:35:40.500 : en:00:35:40.500
00:45:11.417 : en:00:45:11.417
00:54:31.208 : en:00:54:31.208
01:04:10.250 : en:01:04:10.250
01:15:26.625 : en:01:15:26.625
01:23:35.500 : en:01:23:35.500
01:34:12.708 : en:01:34:12.708
01:43:15.875 : en:01:43:15.875



Скачать Навострите.ваши.уши.Prick.Up.Your.Ears.(Стивен.Фрирз).[1987.драма.биография.BDRemux].[MVO.(R5)]+[AVO.(А.Карповский)]+[Оригинал.Eng]+[Sub.Rus.Eng]x2.torrent без регистрации
Золото ЗОЛОТАЯ РАЗДАЧА! СКАЧАННОЕ НЕ ЗАСЧИТЫВАЕТСЯ! Золото
Дата: Зарегистрирован   [ Тип: внутренний ] Как тут cкачать?
MAGNET ссылка
MAGNET ссылка


Скачать .torrent

80 KB

Статус: проверено DHT
Скачан: торрент - 30 раз, раздача полностью - 1 раз
Размер: 15,71 GB
Оценка:  - (Голосов: 0)
Поблагодарили: 1
Поделиться ссылкой на эту раздачу с друзьями:
В контактеFacebookОдноклассникиTwitterLivejournalМой МирLiveinternet
 

 
Показать сообщения:    


Вы не можете начинать темы
Вы не можете отвечать на сообщения
Вы не можете редактировать свои сообщения
Вы не можете удалять свои сообщения
Вы не можете голосовать в опросах
Вы не можете прикреплять файлы к сообщениям
Вы можете скачивать файлы