Loading...
Error

Скачать Афера доктора Нока / Knock (Лоррэйн Леви) [2017, Kомедия, BDRip][1080p][DUB Лицензия] [R.G. GoldenShara] торрент без регистрации

Статистика раздачи
Размер:  4,36 GB   |    Скачан:  122 раза
Сидов:  2  [  234 KB/s  ]   Личеров:  1  [  0 KB/s  ]  
 
 
 
Автор Сообщение

Magnetto83

[] 


Афера доктора Нока / Knock


Год выпуска: 2017
Выпущено: Франция, Бельгия | Canal+
Жанр: Kомедия
Продолжительность: 01:54:01
Перевод: Профессиональный (многоголосый) Лицензия | BD RUS |
Субтитры: Русские (полные), Французский (полные)
Навигация по главам: Сохранены оригинальные главы как на Blu-ray

Режиссер: Лоррэйн Леви

В ролях: Омар Си, Алекс Лутс, Ана Жирардо, Сабин Азема, Паскаль Элбе, Одри Дана, Мишель Вюйермоз, Кристиан Эк, Элен Венсан, Андреа Ферреоль

Описание: Авантюрист по натуре, Нок сел играть в азартные игры, проигрался двум аферистам, остался им должен. Что бы удрать подальше и на подольше, Нок садиться на корабль, который по счастливой случайности ищет судового врача в штат. Убежав от аферистов, Ноку какое-то время приходиться исполнять обязанности врача на корабле, ни чего не зная о медицине, он пользуется книгами и справочниками. Вдохновлённый «новой» профессией, за 5 лет Нок отучился на врача и приехал в маленький городок уже дипломированным специалистом. Там он и разработал некий план действий по личному обогащению, но вот дела не всегда идут так, как хочется…



Возраст: 16+ (зрителям, достигшим 16 лет)
Рейтинг MPAA: PG-13 (детям до 13 лет просмотр нежелателен)

Качество: BDRip 1080p
Формат: MKV
Видео кодек: H.264
Аудио кодек: AC3
Видео: 1920x804 (2.40:1), 5033 Кбит/с, 23.976 fps
Аудио: Русский Dolby Digital 5.1 (448 Кбит/с)


x264 [info]: frame I:1227 Avg QP:13.98 size:160305
x264 [info]: frame P:35913 Avg QP:16.59 size: 53264
x264 [info]: frame B:126902 Avg QP:18.63 size: 17265
x264 [info]: consecutive B-frames: 1.6% 2.1% 8.7% 25.0% 21.4% 32.6% 5.5% 2.0% 1.2%
x264 [total]: encoded 164042 frames, 1.25 fps, 5028.43 kb/s



General
Complete name : I:\Кино\Афера Др. Нока 2017 Dub Rus BDRip 1080p.mkv
Format : Matroska
Format version : Version 4 / Version 2
File size : 4.36 GiB
Duration : 1h 54mn
Overall bit rate : 5 479 Kbps
Movie name : Афера Др. Нока 2017 Dub Rus BDRip 1080p By R.G. GoldenShara
Encoded date : UTC 2018-03-22 18:13:28
Writing application : mkvmerge v7.0.0 ('Where We Going') 64bit built on Jun 9 2014 15:16:27
Writing library : libebml v1.3.0 + libmatroska v1.4.1
Attachements : Cover
DURATION : 01:53:32.014000000
NUMBER_OF_FRAMES : 1857
NUMBER_OF_BYTES : 55011
_STATISTICS_WRITING_APP : mkvmerge v7.0.0 ('Where We Going') 64bit built on Jun 9 2014 15:16:27
_STATISTICS_WRITING_DATE_UTC : 2018-03-22 18:13:28
_STATISTICS_TAGS : BPS DURATION NUMBER_OF_FRAMES NUMBER_OF_BYTES

Video
ID : 1
Format : AVC
Format/Info : Advanced Video Codec
Format profile : High@L4.1
Format settings, CABAC : Yes
Format settings, ReFrames : 5 frames
Codec ID : V_MPEG4/ISO/AVC
Duration : 1h 54mn
Bit rate : 5 033 Kbps
Width : 1 920 pixels
Height : 804 pixels
Display aspect ratio : 2.40:1
Frame rate mode : Constant
Frame rate : 23.976 fps
Color space : YUV
Chroma subsampling : 4:2:0
Bit depth : 8 bits
Scan type : Progressive
Bits/(Pixel*Frame) : 0.136
Stream size : 3.92 GiB (90%)
Title : Афера Др. Нока 2017 BDRip 1080p By Magnetto 83
Writing library : x264 core 146 r2538 121396c
Encoding settings : cabac=1 / ref=5 / deblock=1:-3:-3 / analyse=0x3:0x113 / me=umh / subme=10 / psy=1 / psy_rd=1.00:0.00 / mixed_ref=1 / me_range=32 / chroma_me=1 / trellis=2 / 8x8dct=1 / cqm=0 / deadzone=21,11 / fast_pskip=0 / chroma_qp_offset=-2 / threads=3 / lookahead_threads=1 / sliced_threads=0 / nr=0 / decimate=1 / interlaced=0 / bluray_compat=0 / constrained_intra=0 / bframes=8 / b_pyramid=2 / b_adapt=2 / b_bias=0 / direct=3 / weightb=1 / open_gop=0 / weightp=2 / keyint=250 / keyint_min=23 / scenecut=40 / intra_refresh=0 / rc=2pass / mbtree=0 / bitrate=5033 / ratetol=1.0 / qcomp=0.60 / qpmin=0 / qpmax=69 / qpstep=4 / cplxblur=20.0 / qblur=0.5 / ip_ratio=1.40 / pb_ratio=1.30 / aq=2:1.00
Language : French
Default : Yes
Forced : No

Audio
ID : 2
Format : AC-3
Format/Info : Audio Coding 3
Mode extension : CM (complete main)
Format settings, Endianness : Big
Codec ID : A_AC3
Duration : 1h 54mn
Bit rate mode : Constant
Bit rate : 448 Kbps
Channel(s) : 6 channels
Channel positions : Front: L C R, Side: L R, LFE
Sampling rate : 48.0 KHz
Compression mode : Lossy
Stream size : 365 MiB (8%)
Title : DD 5.1 @ 448 Kbps - Дубляж | Blu-ray RUS |
Language : Russian
Default : Yes
Forced : No

Text #1
ID : 3
Format : UTF-8
Codec ID : S_TEXT/UTF8
Codec ID/Info : UTF-8 Plain Text
Title : Полные
Language : Russian
Default : No
Forced : No

Text #2
ID : 4
Format : UTF-8
Codec ID : S_TEXT/UTF8
Codec ID/Info : UTF-8 Plain Text
Title : Full
Language : French
Default : No
Forced : No

Menu
00:00:00.000 : :Chapter 1
00:10:59.950 : :Chapter 2
00:22:23.050 : :Chapter 3
00:32:14.599 : :Chapter 4
00:42:45.062 : :Chapter 5
00:53:05.473 : :Chapter 6
01:02:24.741 : :Chapter 7
01:11:57.521 : :Chapter 8
01:22:32.989 : :Chapter 9
01:33:03.411 : :Chapter 10
01:42:20.217 : :Chapter 11
01:50:51.853 : :Chapter 12
01:54:01.876 : :Chapter 13







Скачать Афера.доктора.Нока.Knock.(Лоррэйн.Леви).[2017.Kомедия.BDRip][1080p][DUB.Лицензия].[R.G.GoldenShara].torrent без регистрации
Золото ЗОЛОТАЯ РАЗДАЧА! СКАЧАННОЕ НЕ ЗАСЧИТЫВАЕТСЯ! Золото
Дата: Зарегистрирован   [ Тип: внутренний ] Как тут cкачать?
MAGNET ссылка
MAGNET ссылка


Скачать .torrent

11 KB

Статус: проверено
Скачан: торрент - 122 раз, раздача полностью - 179 раз
Размер: 4,36 GB
Оценка:  5 (Голосов: 4)
Поблагодарили: 9
Поделиться ссылкой на эту раздачу с друзьями:
В контактеFacebookОдноклассникиTwitterLivejournalМой МирLiveinternet
 

 
Показать сообщения:    


Вы не можете начинать темы
Вы не можете отвечать на сообщения
Вы не можете редактировать свои сообщения
Вы не можете удалять свои сообщения
Вы не можете голосовать в опросах
Вы не можете прикреплять файлы к сообщениям
Вы можете скачивать файлы