Loading...
Error

Скачать Тихоокеанский рубеж 2 / Pacific Rim Uprising (Стивен С. ДеНайт) [2018, фантастика, боевик, приключения, WEBRip] [720p] [DUB с TS] торрент без регистрации

Статистика раздачи
Размер:  4,23 GB   |    Скачан:  634 раза
Сидов:  9  [  157 KB/s  ]  
 
 
 
Автор Сообщение

leon030982

[] 

Тихоокеанский рубеж 2 / Pacific Rim Uprising



Год выхода : 2018
Жанр : фантастика, боевик, приключения
Страна : США
Производство : Double Dare You (DDY), Legendary Pictures, Perfect World (Beijing) Pictures Co., Universal Pictures
Продолжительность : 01:52:51
Перевод : Профессиональный (полное дублирование) [звук с TS]
Субтитры : вшитые

Режиссер : Стивен С. ДеНайт

В главных ролях: Адриа Архона, Скотт Иствуд, Цзин Тянь, Ринко Кикути, Джон Бойега, Чарли Дэй, Берн Горман, Дастин Клер, Ник Е. Тарабэй, Ширли Родригес

Описание : Команда пилотируемых роботов-защитников остановила вторжение гигантских инопланетных монстров. Великая битва за Тихоокеанский рубеж ознаменовала новую главу в истории человечества. Однако война только начинается…

Пришло время нового поколения отстаивать своё право на Землю.



Премьера (мир): 22 марта 2018
премьера (РФ): 22 марта 2018


Файл
Качество : WEBRip 720p
Формат видео : MKV
Видео : AVC, 4975 kb/s, 1280x536
Звук : AC3, 48.0 KHz, 2 ch, 384 Kbps

Торент обновлен! улучшен видеоряд
General
Unique ID : 204203317159229126883238502076863247585 (0x99A020D9F94B56189D868C925F4C74E1)
Complete name : F:\Pacific.Rim.2.Uprising.2018.Dt.HDTV.72Op_KOSHARA.mkv
Format : Matroska
Format version : Version 2
File size : 4.23 GiB
Duration : 1 h 52 min
Overall bit rate mode : Variable
Overall bit rate : 5 361 kb/s
Encoded date : UTC 2018-04-18 11:34:31
Writing application : mkvmerge v8.3.0 ('Over the Horizon') 64bit
Writing library : libebml v1.3.1 + libmatroska v1.4.2

Video
ID : 1
Format : AVC
Format/Info : Advanced Video Codec
Format profile : High@L4.1
Format settings : CABAC / 4 Ref Frames
Format settings, CABAC : Yes
Format settings, RefFrames : 4 frames
Codec ID : V_MPEG4/ISO/AVC
Duration : 1 h 52 min
Bit rate mode : Variable
Bit rate : 4 870 kb/s
Maximum bit rate : 5 400 kb/s
Width : 1 280 pixels
Height : 536 pixels
Display aspect ratio : 2.40:1
Frame rate mode : Constant
Frame rate : 23.976 (24000/1001) FPS
Standard : Component
Color space : YUV
Chroma subsampling : 4:2:0
Bit depth : 8 bits
Scan type : Progressive
Bits/(Pixel*Frame) : 0.296
Stream size : 3.84 GiB (91%)
Default : Yes
Forced : No
Color range : Limited
Color primaries : BT.709
Transfer characteristics : BT.709
Matrix coefficients : BT.709

Audio
ID : 2
Format : AC-3
Format/Info : Audio Coding 3
Format settings, Endianness : Big
Codec ID : A_AC3
Duration : 1 h 52 min
Bit rate mode : Constant
Bit rate : 384 kb/s
Channel(s) : 2 channels
Channel positions : Front: L R
Sampling rate : 48.0 kHz
Frame rate : 31.250 FPS (1536 SPF)
Bit depth : 16 bits
Compression mode : Lossy
Stream size : 310 MiB (7%)
Service kind : Complete Main
Default : Yes
Forced : No



Скачать Тихоокеанский.рубеж.2.Pacific.Rim.Uprising.(Стивен.С.ДеНайт).[2018.фантастика.боевик.приключения.WEBRip].[720p].[DUB.с.TS].torrent без регистрации
Золото ЗОЛОТАЯ РАЗДАЧА! СКАЧАННОЕ НЕ ЗАСЧИТЫВАЕТСЯ! Золото
Дата: Зарегистрирован   [ Тип: внутренний ] Как тут cкачать?
MAGNET ссылка
MAGNET ссылка


Скачать .torrent

22 KB

Статус: Τ временная раздача
Скачан: торрент - 634 раз, раздача полностью - 170 раз
Размер: 4,23 GB
Оценка:  4,5 (Голосов: 2)
Поблагодарили: 9
Поделиться ссылкой на эту раздачу с друзьями:
В контактеFacebookОдноклассникиTwitterLivejournalМой МирLiveinternet
 

 

fiuke

[] 

 

dagansha

[] 

Качество ужас 🤨
 

dagansha

[] 

Качество ужас
 
Показать сообщения:    


Вы не можете начинать темы
Вы не можете отвечать на сообщения
Вы не можете редактировать свои сообщения
Вы не можете удалять свои сообщения
Вы не можете голосовать в опросах
Вы не можете прикреплять файлы к сообщениям
Вы можете скачивать файлы