Loading...
Error

Скачать Миллиарды / Billions (Сезон 03) ( Эми Дж. Кауфман, Брайан Коппельман, Дэвид Левин) [2018, драма, WEB-DLRip] [DVO] (HamsterStudio) торрент без регистрации

Статистика раздачи
Размер:  7,28 GB   |    Скачан:  235 раз
Сидов:  1  [  0 KB/s  ]  
 
 
 
Автор Сообщение

leon030982

[] 


Миллиарды / Billions


Год выпуска: 2018
Страна: США
Жанр: драма
Продолжительность: 1х~ 01:00:00
Перевод: Профессиональный (двухголосый, закадровый) [HamsterStudio]
Субтитры: нет

Режиссёры: Эми Дж. Кауфман, Брайан Коппельман, Дэвид Левин

В ролях: Дэмиэн Льюис, Пол Джаматти, Мэгги Сифф, Малин Акерман, Тоби Леонард Мур, Дэвид Костабайл, Дэниэл К. Исаак, Фрэнк Хартс и др.

Описание:
В мире власти и больших денег, в самом сердце Нью- Йорка, вовсю идет противостояние амбициозного финансиста с Уолл-стрит Бобби Аксельрода и принципиального федерального прокурора Чака Родса.



Качество: WEB-DLRip
Формат: AVI
Видео: XviD, ~ 1200 Кбит/с, 720x400, 23.976 fps
Аудио: 48 kHz, MP3,2 Ch, 128.00 kbps

Добавлена 12-я серия
General
Complete name : E:\Billions.S03E01.WEB-DLRip.HamsterStudio.Org.avi
Format : AVI
Format/Info : Audio Video Interleave
File size : 803 MiB
Duration : 58 min 44 s
Overall bit rate : 1 911 kb/s
Writing application : VirtualDubMod 1.5.10.3 | www.virtualdub-fr.org || (build 2550/release)
Writing library : VirtualDubMod build 2550/release

Video
ID : 0
Format : MPEG-4 Visual
Format profile : Advanced Simple@L5
Format settings : BVOP1
Format settings, BVOP : 1
Format settings, QPel : No
Format settings, GMC : No warppoints
Format settings, Matrix : Default (H.263)
Codec ID : XVID
Codec ID/Hint : XviD
Duration : 58 min 44 s
Bit rate : 1 699 kb/s
Width : 720 pixels
Height : 400 pixels
Display aspect ratio : 16:9
Frame rate : 23.976 (24000/1001) FPS
Color space : YUV
Chroma subsampling : 4:2:0
Bit depth : 8 bits
Scan type : Progressive
Compression mode : Lossy
Bits/(Pixel*Frame) : 0.246
Stream size : 714 MiB (89%)
Writing library : XviD 1.2.1 (UTC 2008-12-04)

Audio
ID : 1
Format : MPEG Audio
Format version : Version 1
Format profile : Layer 3
Codec ID : 55
Codec ID/Hint : MP3
Duration : 58 min 44 s
Bit rate mode : Constant
Bit rate : 128 kb/s
Channel(s) : 2 channels
Sampling rate : 48.0 kHz
Compression mode : Lossy
Stream size : 53.8 MiB (7%)
Alignment : Aligned on interleaves
Writing library : LAME3.99r
Encoding settings : -m s -V 4 -q 2 -lowpass 17 -b 128
Внимание! Раздача ведётся путём добавления новых серий; при каждом добавлении создаётся новый торрент. Чтобы начать докачку новой серии, пользователям необходимо сделать следующее:
(1) остановить скачивание,
(2) удалить старый торрент у себя из клиента (старые серии удалять не надо),
(3) скачать новый торрент и запустить его у себя в клиенте вместо старого, при этом указать клиенту путь в старую папку куда и должно происходить скачивание новых серий.
Ваш клиент при этом должен произвести хеширование (проверку) старой папки (если не производит сам - помогите ему сделать это), и будет докачивать только те серии которых у вас ещё нет. Старые серии при этом не удаляются, а продолжают раздаваться!
Eсли вы уже удалили старые серии, то предотвратить повторную закачку старых серий можно, отжав галочку в соответствующих местах при запуске нового торрента. По возможности, желательно не удалять старые серии как можно дольше чтобы релизёр не столько продолжал раздавать старые серии, а смог сконцентрироваться на новых.



Скачать Миллиарды.Billions.(Сезон.03).(.Эми.Дж.Кауфман.Брайан.Коппельман.Дэвид.Левин).[2018.драма.WEB-DLRip].[DVO].(HamsterStudio).torrent без регистрации
Золото ЗОЛОТАЯ РАЗДАЧА! СКАЧАННОЕ НЕ ЗАСЧИТЫВАЕТСЯ! Золото
Дата: Зарегистрирован   [ Тип: внутренний ] Как тут cкачать?
MAGNET ссылка
MAGNET ссылка


Скачать .torrent

38 KB

Статус: проверено DHT
Скачан: торрент - 235 раз, раздача полностью - 2 раз
Размер: 7,28 GB
Оценка:  - (Голосов: 0)
Поблагодарили: 0
Поделиться ссылкой на эту раздачу с друзьями:
В контактеFacebookОдноклассникиTwitterLivejournalМой МирLiveinternet
 

 
Показать сообщения:    


Вы не можете начинать темы
Вы не можете отвечать на сообщения
Вы не можете редактировать свои сообщения
Вы не можете удалять свои сообщения
Вы не можете голосовать в опросах
Вы не можете прикреплять файлы к сообщениям
Вы можете скачивать файлы