Loading...
Error

Скачать Улица полна неожиданностей (Сергей Сиделёв) [1958, комедия, DVDRip-AVC] торрент без регистрации

Статистика раздачи
Размер:  1,92 GB   |    Скачан:  47 раз
Сидов:  3  [  0 KB/s  ]   Личеров:  1  [  0 KB/s  ]  
 
 
 
Автор Сообщение

Marsianka

[] 

Улица полна неожиданностей

Страна: СССР
Жанр: комедия
Год выпуска: 1958
Продолжительность: 01:08:49
Перевод: Не требуется
Режиссер: Сергей Сиделёв
В ролях: Леонид Харитонов, Георгий Черноволенко, Джемма Осмоловская, Всеволод Ларионов, Яков Родос, Вера Карпова,
Ольга Порудолинская, Т. Евгеньева-Иванова, Евгений Леонов, Георгий Семенов.

Описание: Возвращающийся навеселе главбух Смирнов забирается в будку регулировщика и нарушает движение транспорта на одной из улиц Ленинграда.
Но постовой Вася Шанешкин доставляет в отделение милиции не нарушителя, а вполне порядочного гражданина — кассира Стройтреста Воднева,
который, ко всему прочему, оказывается отцом его любимой девушки Кати. Вася признает свою вину, но не решается извиниться
— и оставляет обиженного наедине с плохими мыслями о советской милиции. Однако молодому сержанту вскоре представится возможность защитить кассира от нападения
— и герой выполнит свой долг…



Кодек: х264
Качество: DVDRip-AVC
Видео: MPEG-4 AVC, 690х570@736x570, 25 fps, 3800 Кбит/с
Аудио: АС3, 2h, 192 Кбит/с
Субтитры: Нет
Главы: Есть

x264 [info]: frame I:586 Avg QP:17.03 size: 85902
x264 [info]: frame P:25616 Avg QP:19.42 size: 42794
x264 [info]: frame B:77023 Avg QP:21.25 size: 10576

Общее
Уникальный идентификатор : 209478375897500433255836898056839071236 (0x9D981153C173CBFBB1191B61A4578604)
Полное имя : I:сссрУлица полна неожиданностей 1957_DVDRip-AVC_KORSAR.mkv
Формат : Matroska
Версия формата : Version 2
Размер файла : 1,92 Гбайт
Продолжительность : 1 ч. 8 м.
Общий поток : 3993 Кбит/сек
Дата кодирования : UTC 2018-03-24 18:57:30
Программа кодирования : mkvmerge v5.8.0 ('No Sleep / Pillow') built on Sep 2 2012 15:37:04
Библиотека кодирования : libebml v1.2.3 + libmatroska v1.3.0

Видео
Идентификатор : 1
Формат : AVC
Формат/Информация : Advanced Video Codec
Профиль формата : High@L4.1
Настройки формата : CABAC / 14 Ref Frames
Параметр CABAC формата : Да
Параметр RefFrames формата : 14 кадров
Идентификатор кодека : V_MPEG4/ISO/AVC
Продолжительность : 1 ч. 8 м.
Битрейт : 3800 Кбит/сек
Ширина : 690 пикселей
Высота : 570 пикселей
Соотношение сторон : 1,291
Режим частоты кадров : Постоянный
Частота кадров : 25,000 кадров/сек
Цветовое пространство : YUV
Субдискретизация насыщенности : 4:2:0
Битовая глубина : 8 бит
Тип развёртки : Прогрессивная
Бит/(Пиксели*Кадры) : 0.386
Размер потока : 1,79 Гбайт (93%)
Библиотека кодирования : x264 core 152 r2851kMod ba24899
Настройки программы : cabac=1 / ref=14 / deblock=1:-2:-2 / analyse=0x3:0x133 / me=umh / subme=11 / psy=1 / fade_compensate=0.00 / psy_rd=0.80:0.02 / mixed_ref=1 / me_range=48 / chroma_me=1 / trellis=2 / 8x8dct=1 / cqm=0 / deadzone=21,11 / fast_pskip=0 / chroma_qp_offset=-3 / threads=12 / lookahead_threads=3 / sliced_threads=0 / nr=0 / decimate=0 / interlaced=0 / bluray_compat=0 / constrained_intra=0 / bframes=10 / b_pyramid=2 / b_adapt=2 / b_bias=0 / direct=3 / weightb=1 / open_gop=0 / weightp=2 / keyint=250 / keyint_min=25 / scenecut=40 / intra_refresh=0 / rc_lookahead=40 / rc=2pass / mbtree=0 / bitrate=3800 / ratetol=1.0 / qcomp=0.60 / qpmin=0 / qpmax=39 / qpstep=4 / cplxblur=20.0 / qblur=0.5 / vbv_maxrate=50000 / vbv_bufsize=62500 / nal_hrd=none / filler=0 / ip_ratio=1.25 / pb_ratio=1.30 / aq=1:0.90
Язык : English
Default : Да
Forced : Нет
Цветовой диапазон : Limited
Основные цвета : BT.601 PAL
Характеристики трансфера : BT.470 System B, BT.470 System G
Коэффициенты матрицы : BT.470 System B, BT.470 System G

Аудио
Идентификатор : 2
Формат : AC-3
Формат/Информация : Audio Coding 3
Параметр Endianness формата : Big
Идентификатор кодека : A_AC3
Продолжительность : 1 ч. 8 м.
Вид битрейта : Постоянный
Битрейт : 192 Кбит/сек
Каналы : 2 канала
Расположение каналов : Front: L R
Частота : 48,0 КГц
Частота кадров : 31,250 кадров/сек (1536 SPF)
Битовая глубина : 16 бит
Метод сжатия : С потерями
Размер потока : 94,5 Мбайт (5%)
Язык : Russian
Default : Да
Forced : Нет

Меню
00:00:00.000 : en:Chapter 1
00:05:32.360 : en:Chapter 2
00:10:49.000 : en:Chapter 3
00:16:43.280 : en:Chapter 4
00:23:14.480 : en:Chapter 5
00:29:00.080 : en:Chapter 6
00:34:54.680 : en:Chapter 7
00:40:16.360 : en:Chapter 8
00:46:00.520 : en:Chapter 9
00:52:04.280 : en:Chapter 10
00:57:40.360 : en:Chapter 11
01:02:44.840 : en:Chapter 12

Исходник__________________________________________Рип



Скачать Улица.полна.неожиданностей.(Сергей.Сиделёв).[1958.комедия.DVDRip-AVC].torrent без регистрации
Золото ЗОЛОТАЯ РАЗДАЧА! СКАЧАННОЕ НЕ ЗАСЧИТЫВАЕТСЯ! Золото
Дата: Зарегистрирован   [ Тип: внешний ] Как тут cкачать?
MAGNET ссылка
MAGNET ссылка


Скачать .torrent

20 KB

Статус: проверено DHT
Скачан: торрент - 47 раз, раздача полностью - 15 раз
Размер: 1,92 GB
Оценка:  - (Голосов: 0)
Поблагодарили: 1
Поделиться ссылкой на эту раздачу с друзьями:
В контактеFacebookОдноклассникиTwitterLivejournalМой МирLiveinternet
 

 
Показать сообщения:    


Вы не можете начинать темы
Вы не можете отвечать на сообщения
Вы не можете редактировать свои сообщения
Вы не можете удалять свои сообщения
Вы не можете голосовать в опросах
Вы не можете прикреплять файлы к сообщениям
Вы можете скачивать файлы