Loading...
Error

Скачать 10x10 / 10 на 10 (Сьюзи Юинг) [2018, триллер, WEBRip] [DVO (HiWay Grope)] торрент без регистрации

Статистика раздачи
Размер:  1,33 GB   |    Скачан:  101 раз
Сидов:  1  [  0 KB/s  ]  
 
 
 
Автор Сообщение

МихаНЕзатор

[] 

Информация о фильме
Название: 10 на 10
Оригинальное название: 10x10
Год выхода: 2018
Жанр: триллер
Режиссер: Сьюзи Юинг

В ролях: Люк Эванс, Келли Райлли, Ноэль Кларк, Оливия Ченери, Руби Бустаманте, Джейсон Мацца, Джилл Винтерниц, Скай Люсия Дегруттола, Джексон Кай и другие

О фильме: Молодой человек средь бела дня очень дерзко похищает девушку прямо с городской улицы. Предварительно у себя дома он соорудил звукоизолированную коробку размером десять на десять футов, куда и поместил свою пленницу. На это ужасное и безумное действие, как оказывается, его толкает чувство неудовлетворенной мести, а девушка, оказавшаяся в ловушке, не является невинной жертвой маньяка.



Релиз от: HiWay Grope

Страна: Великобритания, Broadlane Films
Продолжительность: 01:26:58
Перевод: Любительский (двухголосый закадровый) | HiWay Grope

Файл
Кодек: XviD
Качество: WEBRip 720p
Видео: 720x272, 23.976 fps, ~1792 kbps, 0.38 bit/pixel
Звук:
Аудио rus: AC3, 48 kHz, 6 ch, 384 Kbps
Субтитры: отсутствуют

General
Complete name : E:10x10.2018.WEBRip.HiWayGrope10x10.2018.WEBRip.HiWayGrope.avi
Format : AVI
Format/Info : Audio Video Interleave
File size : 1.33 GiB
Duration : 1h 26mn
Overall bit rate : 2 186 Kbps
Writing application : VirtualDubMod 1.5.10.3 (build 2550/release)
Writing library : VirtualDubMod build 2550/release

Video
ID : 0
Format : MPEG-4 Visual
Format profile : Advanced Simple@L5
Format settings, BVOP : 1
Format settings, QPel : No
Format settings, GMC : No warppoints
Format settings, Matrix : Default (MPEG)
Codec ID : XVID
Codec ID/Hint : XviD
Duration : 1h 26mn
Bit rate : 1 792 Kbps
Width : 720 pixels
Height : 272 pixels
Display aspect ratio : 2.647
Frame rate : 23.976 (23976/1000) fps
Color space : YUV
Chroma subsampling : 4:2:0
Bit depth : 8 bits
Scan type : Progressive
Compression mode : Lossy
Bits/(Pixel*Frame) : 0.382
Stream size : 1.09 GiB (82%)
Writing library : XviD 73

Audio
ID : 1
Format : AC-3
Format/Info : Audio Coding 3
Mode extension : CM (complete main)
Format settings, Endianness : Big
Codec ID : 2000
Duration : 1h 26mn
Bit rate mode : Constant
Bit rate : 384 Kbps
Channel(s) : 6 channels
Channel positions : Front: L C R, Side: L R, LFE
Sampling rate : 48.0 KHz
Frame rate : 31.250 fps (1536 spf)
Compression mode : Lossy
Stream size : 239 MiB (18%)
Alignment : Split accross interleaves
Interleave, duration : 42 ms (1.00 video frame)
Interleave, preload duration : 500 ms



Скачать 10x10.10.на.10.(Сьюзи.Юинг).[2018.триллер.WEBRip].[DVO.(HiWay.Grope)].torrent без регистрации
Золото ЗОЛОТАЯ РАЗДАЧА! СКАЧАННОЕ НЕ ЗАСЧИТЫВАЕТСЯ! Золото
Дата: Зарегистрирован   [ Тип: внутренний ] Как тут cкачать?
MAGNET ссылка
MAGNET ссылка


Скачать .torrent

14 KB

Статус: проверено DHT
Скачан: торрент - 101 раз, раздача полностью - 105 раз
Размер: 1,33 GB
Оценка:  - (Голосов: 0)
Поблагодарили: 5
Поделиться ссылкой на эту раздачу с друзьями:
В контактеFacebookОдноклассникиTwitterLivejournalМой МирLiveinternet
 

 
Показать сообщения:    


Вы не можете начинать темы
Вы не можете отвечать на сообщения
Вы не можете редактировать свои сообщения
Вы не можете удалять свои сообщения
Вы не можете голосовать в опросах
Вы не можете прикреплять файлы к сообщениям
Вы можете скачивать файлы