Loading...
Error

Скачать Игра окончена, чувак! / Game Over, Man! (Кайл Ньюачек) [2018, боевик, комедия, WEBRip] [MVO (BaibaKo)] торрент без регистрации

Статистика раздачи
Размер:  1,38 GB   |    Скачан:  248 раз
Сидов:  93  [  0 KB/s  ]  
 
 
 
Автор Сообщение

МихаНЕзатор

[] 

Информация о фильме
Название: Игра окончена, чувак!
Оригинальное название: Game Over, Man!
Год выпуска: 2018
Страна: США
Жанр: боевик, комедия
Режиссер: Кайл Ньюачек

В ролях: Адам Дивайн (Alexxx), Стефани Бирд (Sugar Lyn Beard), Стив Хоуи (Rich), Локлин Манро (Alexxx's Dad), Нил МакДонаф (Conrad Drothers), Клорис Личмен (Arvilla Kingle), Хлоя Бриджес (Diana), Андерс Холм (Darren), Блейк Андерсон (Joel), Эмили Мэддисон (Hottie), Ая Кэш (Cassie), Джер Бернс (Mr. Duncan)

Описание: Три друга совсем скоро должны вывести на рынок свою новую видеоигру, которая должна принести им признание и богатство. Но по невероятному стечению обстоятельств их главный спонсор попадает в заложники к террористам. Надежды на полицию нет, поэтому они решают разобраться с проблемой своими силами.



Продолжительность: 01:40:56
Перевод: Любительский многоголосый [BaibaKo] - присутствует ненормативная лексика!
Примечание: Релиз без рекламы

Качество: WEBRip
Формат: AVI
Видео: XviD, 720x304 (2.35:1), 1561 kbps, 23,976 fps, 0,298 bpp
Аудио: AC3 / 5.1 / 48 kHz / 384 kbps /
Очистка от рекламы: Atla22

General
Complete name : E:Game.Over.Man.2018.WEBRip.MVO.BaibaKo.R.G.Resident.avi
Format : AVI
Format/Info : Audio Video Interleave
File size : 1.38 GiB
Duration : 1 h 40 min
Overall bit rate : 1 955 kb/s
Writing application : VirtualDubModRus 1.5.10.2 (build 2542/release)
Writing library : VirtualDubMod build 2542/release

Video
ID : 0
Format : MPEG-4 Visual
Format profile : Advanced Simple@L5
Format settings, BVOP : 2
Format settings, QPel : No
Format settings, GMC : No warppoints
Format settings, Matrix : Custom
Codec ID : XVID
Codec ID/Hint : XviD
Duration : 1 h 40 min
Bit rate : 1 562 kb/s
Width : 720 pixels
Height : 304 pixels
Display aspect ratio : 2.35:1
Frame rate : 23.976 (24000/1001) FPS
Color space : YUV
Chroma subsampling : 4:2:0
Bit depth : 8 bits
Scan type : Progressive
Compression mode : Lossy
Bits/(Pixel*Frame) : 0.298
Stream size : 1.10 GiB (80%)
Writing library : XviD 73

Audio
ID : 1
Format : AC-3
Format/Info : Audio Coding 3
Mode extension : CM (complete main)
Format settings, Endianness : Big
Codec ID : 2000
Duration : 1 h 40 min
Bit rate mode : Constant
Bit rate : 384 kb/s
Channel(s) : 6 channels
Channel positions : Front: L C R, Side: L R, LFE
Sampling rate : 48.0 kHz
Frame rate : 31.250 FPS (1536 spf)
Compression mode : Lossy
Stream size : 277 MiB (20%)
Alignment : Split accross interleaves
Interleave, duration : 42 ms (1.00 video frame)
Interleave, preload duration : 500 ms



Скачать Игра.окончена.чувак!.Game.Over.Man!.(Кайл.Ньюачек).[2018.боевик.комедия.WEBRip].[MVO.(BaibaKo)].torrent без регистрации
Золото ЗОЛОТАЯ РАЗДАЧА! СКАЧАННОЕ НЕ ЗАСЧИТЫВАЕТСЯ! Золото
Дата: Зарегистрирован   [ Тип: внешний ] Как тут cкачать?
MAGNET ссылка
MAGNET ссылка


Скачать .torrent

15 KB

Статус: проверено DHT
Скачан: торрент - 248 раз, раздача полностью - 546 раз
Размер: 1,38 GB
Оценка:  4,5 (Голосов: 2)
Поблагодарили: 8
Поделиться ссылкой на эту раздачу с друзьями:
В контактеFacebookОдноклассникиTwitterLivejournalМой МирLiveinternet
 

 
Показать сообщения:    


Вы не можете начинать темы
Вы не можете отвечать на сообщения
Вы не можете редактировать свои сообщения
Вы не можете удалять свои сообщения
Вы не можете голосовать в опросах
Вы не можете прикреплять файлы к сообщениям
Вы можете скачивать файлы