Loading...
Error

Скачать Цепной пёс / Bullet Head (Пол Солет) [2017, Триллер, драма, криминал, BDRip][1080p] [Dub Лицензия] [R.G. GoldenShara] торрент без регистрации

Статистика раздачи
Размер:  4,35 GB   |    Скачан:  122 раза
Сидов:  3  [  0 KB/s  ]  
 
 
 
Автор Сообщение

Magnetto83

[] 


Цепной пёс / Bullet Head


Год выпуска: 2017
Выпущено: Болгария, США | Millennium Media
Жанр: Триллер, драма, криминал
Продолжительность: 01:34:18
Перевод: Профессиональный (полное дублирование) | Blu-ray RUS |
Субтитры: Английские (Full)
Навигация по главам: Сохранены оригинальные главы как на Blu-ray

Режиссер: Пол Солет

В ролях: Эдриан Броуди, Рори Калкин, Антонио Бандерас, Джон Малкович, Александра Дину, Кристина Сеговиа, Ори Феффер, Оуэн Дэвис, Велизар Бинев, Кит Д. Эванс

Описание: Четверо незадачливых воришек сбегают с украденным сейфом от полиции. Воришки настолько незадачливы, что одного из них все-таки подстрелили и он, из последних сил уведя машину в относительно безопасное и укромное место, скончался. Остальные обнаруживают, что прикатились в крайне заброшенное и интересно обставленное место, навроде склада всякой всячины. Только вот в здешнем ареале обитает бойцовский пёс по кличке Де Ниро. И история собакена — параллельная сюжетная линия, перемежающая криминальный триллер.



Возраст: 18+ (зрителям, достигшим 18 лет. запрещено для детей)
Рейтинг MPAA: R (лицам до 17 лет обязательно присутствие взрослого)

Качество: BDRip 1080p
Формат: MKV
Видео кодек: H.264
Аудио кодек: AC3
Видео: 1920x804 (2.40:1), 5989 Кбит/с, 23.976 fps
Аудио: Русский Dolby Digital 5.1 (640 Кбит/с)


x264 [info]: frame I:837 Avg QP:14.87 size:182101
x264 [info]: frame P:30123 Avg QP:17.25 size: 54410
x264 [info]: frame B:104689 Avg QP:19.53 size: 23164
x264 [info]: consecutive B-frames: 2.2% 5.2% 9.5% 9.5% 14.8% 50.6% 3.9% 1.4% 2.8%
x264 [total]: encoded 135649 frames, 0.84 fps, 5961.96 kb/s



General
Complete name : G:\Видео\Мои Рипы 1080p\Кино-Хиты 2017\Цепной Пёс 2017 Dub Rus BDRip 1080p.mkv
Format : Matroska
Format version : Version 4 / Version 2
File size : 4.35 GiB
Duration : 1h 34mn
Overall bit rate : 6 603 Kbps
Movie name : Цепной Пёс 2017 Dub Rus iTunes BDRip 1080p By R.G. GoldenShara
Encoded date : UTC 2018-03-19 08:00:55
Writing application : mkvmerge v7.8.0 ('River Man') 32bit built on Mar 27 2015 16:18:02
Writing library : libebml v1.3.1 + libmatroska v1.4.2
Attachements : Cover
DURATION : 01:34:09.664000000
NUMBER_OF_FRAMES : 176552
NUMBER_OF_BYTES : 451973120
_STATISTICS_WRITING_APP : mkvmerge v7.8.0 ('River Man') 32bit built on Mar 27 2015 16:18:02
_STATISTICS_WRITING_DATE_UTC : 2018-03-19 08:00:55
_STATISTICS_TAGS : BPS DURATION NUMBER_OF_FRAMES NUMBER_OF_BYTES

Video
ID : 1
Format : AVC
Format/Info : Advanced Video Codec
Format profile : High@L4.1
Format settings, CABAC : Yes
Format settings, ReFrames : 5 frames
Codec ID : V_MPEG4/ISO/AVC
Duration : 1h 34mn
Bit rate : 5 989 Kbps
Width : 1 920 pixels
Height : 804 pixels
Display aspect ratio : 2.40:1
Frame rate mode : Constant
Frame rate : 23.976 fps
Color space : YUV
Chroma subsampling : 4:2:0
Bit depth : 8 bits
Scan type : Progressive
Bits/(Pixel*Frame) : 0.162
Stream size : 3.84 GiB (88%)
Title : Цепной Пёс 2017 BDRip 1080p By Magnetto 83
Writing library : x264 core 146 r2538 121396c
Encoding settings : cabac=1 / ref=5 / deblock=1:-3:-3 / analyse=0x3:0x113 / me=umh / subme=11 / psy=1 / psy_rd=1.00:0.00 / mixed_ref=1 / me_range=32 / chroma_me=1 / trellis=2 / 8x8dct=1 / cqm=0 / deadzone=21,11 / fast_pskip=0 / chroma_qp_offset=-2 / threads=3 / lookahead_threads=1 / sliced_threads=0 / nr=0 / decimate=1 / interlaced=0 / bluray_compat=0 / constrained_intra=0 / bframes=8 / b_pyramid=2 / b_adapt=2 / b_bias=0 / direct=3 / weightb=1 / open_gop=0 / weightp=2 / keyint=250 / keyint_min=23 / scenecut=40 / intra_refresh=0 / rc=2pass / mbtree=0 / bitrate=5989 / ratetol=1.0 / qcomp=0.60 / qpmin=0 / qpmax=69 / qpstep=4 / cplxblur=20.0 / qblur=0.5 / ip_ratio=1.40 / pb_ratio=1.30 / aq=2:1.00
Language : English
Default : Yes
Forced : No

Audio
ID : 2
Format : AC-3
Format/Info : Audio Coding 3
Mode extension : CM (complete main)
Format settings, Endianness : Big
Codec ID : A_AC3
Duration : 1h 34mn
Bit rate mode : Constant
Bit rate : 640 Kbps
Channel(s) : 6 channels
Channel positions : Front: L C R, Side: L R, LFE
Sampling rate : 48.0 KHz
Compression mode : Lossy
Stream size : 432 MiB (10%)
Title : DD 5.1 @ 640 Kbps - Дубляж | Blu-ray RUS |
Language : Russian
Default : Yes
Forced : No

Text
ID : 3
Format : UTF-8
Codec ID : S_TEXT/UTF8
Codec ID/Info : UTF-8 Plain Text
Title : Full
Language : English
Default : No
Forced : No

Menu
00:00:00.000 : en:00:00:00.000
00:03:33.213 : en:00:03:33.213
00:08:37.684 : en:00:08:37.684
00:13:22.927 : en:00:13:22.927
00:22:26.136 : en:00:22:26.136
00:29:18.548 : en:00:29:18.548
00:35:30.670 : en:00:35:30.670
00:41:42.041 : en:00:41:42.041
00:49:39.727 : en:00:49:39.727
00:52:54.463 : en:00:52:54.463
00:57:24.566 : en:00:57:24.566
01:01:10.333 : en:01:01:10.333
01:08:26.769 : en:01:08:26.769
01:14:11.280 : en:01:14:11.280
01:22:48.797 : en:01:22:48.797
01:27:07.889 : en:01:27:07.889







Скачать Цепной.пёс.Bullet.Head.(Пол.Солет).[2017.Триллер.драма.криминал.BDRip][1080p].[Dub.Лицензия].[R.G.GoldenShara].torrent без регистрации
Золото ЗОЛОТАЯ РАЗДАЧА! СКАЧАННОЕ НЕ ЗАСЧИТЫВАЕТСЯ! Золото
Дата: Зарегистрирован   [ Тип: внутренний ] Как тут cкачать?
MAGNET ссылка
MAGNET ссылка


Скачать .torrent

11 KB

Статус: проверено
Скачан: торрент - 122 раз, раздача полностью - 85 раз
Размер: 4,35 GB
Оценка:  5 (Голосов: 5)
Поблагодарили: 12
Поделиться ссылкой на эту раздачу с друзьями:
В контактеFacebookОдноклассникиTwitterLivejournalМой МирLiveinternet
 

 
Показать сообщения:    


Вы не можете начинать темы
Вы не можете отвечать на сообщения
Вы не можете редактировать свои сообщения
Вы не можете удалять свои сообщения
Вы не можете голосовать в опросах
Вы не можете прикреплять файлы к сообщениям
Вы можете скачивать файлы