Loading...
Error

Скачать Кремниевая долина / Silicon Valley (Сезон 05) (Майк Джадж) [2017, комедия, WEB-DL] [1080p] [MVO] (Jaskier) + [Eng] + [Sub Eng] торрент без регистрации

Статистика раздачи
Размер:  12,91 GB   |    Скачан:  141 раз
Сидов:  19  [  0 KB/s  ]   Личеров:  8  [  0 KB/s  ]  
 
 
 
Автор Сообщение

leon030982

[] 

✧ Кремниевая долина ✧

Информация о фильме:
✦ Название: Кремниевая долина / Силиконовая долина
✦ Оригинальное название: Silicon Valley
✦ Год выхода: 2018
✦ Жанр: комедия
✦ Страна: США
✦ Продолжительность: ~ 00:30:00
✦ Перевод: Профессиональный (многоголосый, закадровый) - Jaskier [без цензуры]

✦ Режиссер: Майк Джадж

✦ В ролях: Аманда Крю, Эли Мави, Джэйк Бродер, Энди Бакли, Порша Коулмэн, Джимми Оуянг, Остин Абрамс, Victor Achkeev, Джилл Е. Александр, Бобак Бахтиари

Описание фильма: Жизнь в Силиконовой долине – жестокая борьба за место под калифорнийским солнцем. Каждый здесь мечтает стать новым Джобсом. Шестеро молодых айтишников пытаются придумать прорывный стартап, который принесет им славу и деньги. Но великие изобретатели беспомощны в повседневной жизни, а толковые прагматики не могут справиться со звездной болезнью. Создатель шоу Майк Джадж, автор «Бивиса и Баттхеда», знает, как превратить эти гиковские сложности в комедию.



Информация о файле:
Качество: WEB-DL (1080p)
Видео: 1920x1080 (16:9) | X264/MPEG4-AVC | ~10000 kbps | 23.976 fps
Аудио: AC3 | 48 KHz | 5.1 (Front: L С R Side: L R) + LFE | ~384 kbps [RUS]
Аудио: AC3 | 48 KHz | 5.1 (Front: L С R Side: L R) + LFE | ~384 kbps [ENG]
Субтитры: английские

Добавлена 8-я серия!
General
Unique ID : 242303158543080014884634744201404364480 (0xB649E40FC77E4EB5B82F75A9120236C0)
Complete name : E:\Silicon Valley. Season 5 (WEB-DL l 1080p l Jaskier)\Silicon.Valley.S05E01.1080p.WEB-DL.DD5.1.H.264-Jaskier.mkv
Format : Matroska
Format version : Version 2
File size : 1.79 GiB
Duration : 31 min 50 s
Overall bit rate mode : Variable
Overall bit rate : 8 052 kb/s
Encoded date : UTC 2018-03-27 09:46:44
Writing application : mkvmerge v7.8.0 ('River Man') 32bit built on Apr 3 2015 12:11:22
Writing library : libebml v1.3.1 + libmatroska v1.4.2

Video
ID : 1
Format : AVC
Format/Info : Advanced Video Codec
Format profile : High@L4
Format settings : CABAC / 4 Ref Frames
Format settings, CABAC : Yes
Format settings, RefFrames : 4 frames
Codec ID : V_MPEG4/ISO/AVC
Duration : 31 min 50 s
Bit rate mode : Variable
Bit rate : 7 124 kb/s
Maximum bit rate : 15.0 Mb/s
Width : 1 920 pixels
Height : 1 080 pixels
Display aspect ratio : 16:9
Frame rate mode : Constant
Frame rate : 23.976 (24000/1001) FPS
Color space : YUV
Chroma subsampling : 4:2:0
Bit depth : 8 bits
Scan type : Progressive
Bits/(Pixel*Frame) : 0.143
Stream size : 1.58 GiB (88%)
Language : English
Default : Yes
Forced : No
Color range : Limited
Color primaries : BT.709
Transfer characteristics : BT.709
Matrix coefficients : BT.709

Audio #1
ID : 2
Format : AC-3
Format/Info : Audio Coding 3
Format settings, Endianness : Big
Codec ID : A_AC3
Duration : 31 min 50 s
Bit rate mode : Constant
Bit rate : 384 kb/s
Channel(s) : 6 channels
Channel positions : Front: L C R, Side: L R, LFE
Sampling rate : 48.0 kHz
Frame rate : 31.250 FPS (1536 SPF)
Bit depth : 16 bits
Compression mode : Lossy
Stream size : 87.5 MiB (5%)
Title : Jaskier
Language : Russian
Service kind : Complete Main
Default : Yes
Forced : No

Audio #2
ID : 3
Format : AC-3
Format/Info : Audio Coding 3
Format settings, Endianness : Big
Codec ID : A_AC3
Duration : 31 min 50 s
Bit rate mode : Constant
Bit rate : 384 kb/s
Channel(s) : 6 channels
Channel positions : Front: L C R, Side: L R, LFE
Sampling rate : 48.0 kHz
Frame rate : 31.250 FPS (1536 SPF)
Bit depth : 16 bits
Compression mode : Lossy
Stream size : 87.5 MiB (5%)
Language : English
Service kind : Complete Main
Default : No
Forced : No

Text
ID : 4
Format : UTF-8
Codec ID : S_TEXT/UTF8
Codec ID/Info : UTF-8 Plain Text
Language : English
Default : No
Forced : No

Menu
00:00:00.000 : en:TV Rating
00:00:03.629 : en:Previously On
00:01:43.629 : en:Studio Logo
00:01:49.629 : en:Pied Piper moves into their new office space
00:05:16.629 : en:Title Sequence
00:05:26.629 : en:Dinesh and Bertram can't agree on who to hire
00:07:39.629 : en:Richard attends Gavin's gala
00:10:21.629 : en:Pied Piper attempts to buy out another company
00:13:39.629 : en:Dinesh and Gilfoyle return home
00:14:37.629 : en:Gavin speaks to the new hires
00:16:59.629 : en:Jian tries to take control of the house
00:18:53.629 : en:Richard looses out on more employees
00:21:17.629 : en:Gavin looks at the Box pre-order numbers
00:23:05.629 : en:Sliceline has a huge problem
00:26:28.629 : en:Richard meets with Monica and Laurie
00:28:07.629 : en:Richard gives a speech to his new coders
00:30:03.629 : en:End Credits
00:31:13.629 : en:On the next episode
Когда раздача ведётся путём добавления новых серий, при каждом добавлении создётся новый торрент. Чтобы начать докачку новой серии, пользователям необходимо сделать следующее:
(1) остановить скачивание,
(2) удалить старый торрент у себя из клиента (старые серии удалять не надо),
(3) скачать новый торрент и запустить его у себя в клиенте вместо старого, при этом указать клиенту путь в старую папку, куда и должно происходить скачивание новых серий.
Ваш клиент при этом должен произвести хеширование (проверку) старой папки (если не производит сам - помогите ему сделать это), и будет докачивать только те серии, которых у вас ещё нет. Старые серии при этом не удаляются, а продолжают раздаваться!
Eсли вы уже удалили старые серии, то предотвратить повторную закачку старых серий можно, отжав галочку в соответсвующих местах при запуске нового торрента. По возможности, желательно не удалять старые серии как можно дольше, чтобы релизёр не столько продолжал раздавать старые серии, а смог сконцентрироваться на новых.



Скачать Кремниевая.долина.Silicon.Valley.(Сезон.05).(Майк.Джадж).[2017.комедия.WEB-DL].[1080p].[MVO].(Jaskier).+.[Eng].+.[Sub.Eng].torrent без регистрации
Золото ЗОЛОТАЯ РАЗДАЧА! СКАЧАННОЕ НЕ ЗАСЧИТЫВАЕТСЯ! Золото
Дата: Зарегистрирован   [ Тип: внешний ] Как тут cкачать?
MAGNET ссылка
MAGNET ссылка


Скачать .torrent

66 KB

Статус: проверено DHT
Скачан: торрент - 141 раз, раздача полностью - 3 раз
Размер: 12,91 GB
Оценка:  - (Голосов: 0)
Поблагодарили: 0
Поделиться ссылкой на эту раздачу с друзьями:
В контактеFacebookОдноклассникиTwitterLivejournalМой МирLiveinternet
 

 
Показать сообщения:    


Вы не можете начинать темы
Вы не можете отвечать на сообщения
Вы не можете редактировать свои сообщения
Вы не можете удалять свои сообщения
Вы не можете голосовать в опросах
Вы не можете прикреплять файлы к сообщениям
Вы можете скачивать файлы