Loading...
Error

Скачать Селфи из ада / Selfie from Hell (Эрдал Сейлан) [2018, ужасы, детектив, WEBRip] [DVO (HiWay Grope)] торрент без регистрации

Статистика раздачи
Размер:  1,26 GB   |    Скачан:  100 раз

Полного источника не было: 21 минута

 
 
 
Автор Сообщение

МихаНЕзатор

[] 

Информация о фильме
Название: Селфи из ада
Оригинальное название: Selfie from Hell
Год выхода: 2018
Жанр: ужасы, детектив
Режиссер: Эрдал Сейлан

В ролях: Элисон Уолкер, Тони Жиру, Мила Адамс, Йен Батчер, Тайлер Смит, Шон Морс, Мэттью Грэхэм, Стефани Гуден и другие

О фильме: Видеоблогер Джулия приезжает в гости к своей кузине Ханне и внезапно заболевает. Её странная болезнь вызывает у Ханны подозрения. После того как в ее доме происходят необъяснимые вещи, Ханна начинает искать ответы в интернете. Она находит записи в блоге Джулии и оказывается глубоко погруженной в сеть — слишком глубоко — в том месте, где ужас не знает границ.



Релиз от: HiWay Grope

Страна: Великобритания, Broadlane Films
Продолжительность: 01:16:16
Перевод: Любительский (двухголосый закадровый) | HiWay Grope

Файл
Кодек: XviD
Качество: WEBRip
Видео: 720x304, 23.976 fps, ~1965 kbps, 0.37 bit/pixel
Звук:
Аудио rus: AC3, 48 kHz, 6 ch, 384 Kbps
Субтитры: отсутствуют

General
Complete name : E:Selfie.from.Hell.2018.WEBRip.HiWayGropeSelfie.from.Hell.2018.WEBRip.HiWayGrope.avi
Format : AVI
Format/Info : Audio Video Interleave
File size : 1.26 GiB
Duration : 1h 16mn
Overall bit rate : 2 359 Kbps
Writing application : VirtualDubMod 1.5.10.3 (build 2550/release)
Writing library : VirtualDubMod build 2550/release

Video
ID : 0
Format : MPEG-4 Visual
Format profile : Advanced Simple@L5
Format settings, BVOP : 1
Format settings, QPel : No
Format settings, GMC : No warppoints
Format settings, Matrix : Default (MPEG)
Codec ID : XVID
Codec ID/Hint : XviD
Duration : 1h 16mn
Bit rate : 1 966 Kbps
Width : 720 pixels
Height : 304 pixels
Display aspect ratio : 2.35:1
Frame rate : 23.976 (23976/1000) fps
Color space : YUV
Chroma subsampling : 4:2:0
Bit depth : 8 bits
Scan type : Progressive
Compression mode : Lossy
Bits/(Pixel*Frame) : 0.375
Stream size : 1.05 GiB (83%)
Writing library : XviD 73

Audio
ID : 1
Format : AC-3
Format/Info : Audio Coding 3
Mode extension : CM (complete main)
Format settings, Endianness : Big
Codec ID : 2000
Duration : 1h 16mn
Bit rate mode : Constant
Bit rate : 384 Kbps
Channel(s) : 6 channels
Channel positions : Front: L C R, Side: L R, LFE
Sampling rate : 48.0 KHz
Frame rate : 31.250 fps (1536 spf)
Compression mode : Lossy
Stream size : 209 MiB (16%)
Alignment : Split accross interleaves
Interleave, duration : 42 ms (1.00 video frame)
Interleave, preload duration : 500 ms



Скачать Селфи.из.ада.Selfie.from.Hell.(Эрдал.Сейлан).[2018.ужасы.детектив.WEBRip].[DVO.(HiWay.Grope)].torrent без регистрации
Золото ЗОЛОТАЯ РАЗДАЧА! СКАЧАННОЕ НЕ ЗАСЧИТЫВАЕТСЯ! Золото
Дата: Зарегистрирован   [ Тип: внутренний ] Как тут cкачать?
MAGNET ссылка
MAGNET ссылка


Скачать .torrent

14 KB

Статус: проверено DHT
Скачан: торрент - 100 раз, раздача полностью - 152 раз
Размер: 1,26 GB
Оценка:  3 (Голосов: 1)
Поблагодарили: 6
Поделиться ссылкой на эту раздачу с друзьями:
В контактеFacebookОдноклассникиTwitterLivejournalМой МирLiveinternet
 

 
Показать сообщения:    


Вы не можете начинать темы
Вы не можете отвечать на сообщения
Вы не можете редактировать свои сообщения
Вы не можете удалять свои сообщения
Вы не можете голосовать в опросах
Вы не можете прикреплять файлы к сообщениям
Вы можете скачивать файлы