Loading...
Error

Скачать 10 на 10 / 10x10 (Сьюзи Юинг) [2018, триллер, WEB-DL] [1080p] [MVO] (HDrezka Studio) торрент без регистрации

Статистика раздачи
Размер:  3,47 GB   |    Скачан:  136 раз
Сидов:  1  [  118 KB/s  ]  
 
 
 
Автор Сообщение

leon030982

[] 

10 на 10 / 10x10

Информация о фильме

Год выхода: 2018
Жанр: триллер
Страна: Великобритания, Broadlane Films
Продолжительность: 01:26:29
Перевод: Профессиональный (многоголосый закадровый) | HDrezka Studio

Режиссер: Сьюзи Юинг

В ролях: Люк Эванс, Келли Райлли, Ноэль Кларк, Оливия Ченери, Руби Бустаманте, Джейсон Мацца, Джилл Винтерниц, Скай Люсия Дегруттола, Джексон Кай и другие

О фильме:

Молодой человек средь бела дня очень дерзко похищает девушку прямо с городской улицы. Предварительно у себя дома он соорудил звукоизолированную коробку размером десять на десять футов, куда и поместил свою пленницу. На это ужасное и безумное действие, как оказывается, его толкает чувство неудовлетворенной мести, а девушка, оказавшаяся в ловушке, не является невинной жертвой маньяка.




Файл
Кодек: MPEG-4 AVC/x.264
Качество: WEB-DL 1080p
Видео: MPEG-4 AVC, 4867 Кбит/с, 1920x720, 23.976 fps
Аудио rus: AC3, 48 kHz, 2 ch, 384 Kbps
Аудио eng: AC3, 48 kHz, 6 ch, 384 Kbps
Субтитры: отсутствуют
General
Unique ID : 185595369612000207441959345332775231768 (0x8BA05E346E63E8EC8B8891088FA32118)
Complete name : F:\10x10.2018.HDRezka.1080p.WEB-DL.by.Алекскндр14.mkv
Format : Matroska
Format version : Version 4 / Version 2
File size : 3.47 GiB
Duration : 1 h 26 min
Overall bit rate : 5 749 kb/s
Movie name : CRO DIAMOND 1080p
Encoded date : UTC 2018-03-27 13:18:54
Writing application : mkvmerge v6.1.0 ('Old Devil') built on Mar 4 2013 09:10:42
Writing library : libebml v1.3.0 + libmatroska v1.4.0

Video
ID : 1
Format : AVC
Format/Info : Advanced Video Codec
Format profile : High@L4
Format settings : CABAC / 4 Ref Frames
Format settings, CABAC : Yes
Format settings, RefFrames : 4 frames
Codec ID : V_MPEG4/ISO/AVC
Duration : 1 h 26 min
Bit rate : 4 867 kb/s
Width : 1 920 pixels
Height : 720 pixels
Display aspect ratio : 2.667
Frame rate mode : Constant
Frame rate : 23.976 (23976/1000) FPS
Original frame rate : 23.976 (24000/1001) FPS
Color space : YUV
Chroma subsampling : 4:2:0
Bit depth : 8 bits
Scan type : Progressive
Bits/(Pixel*Frame) : 0.147
Stream size : 2.94 GiB (85%)
Title : CRO DIAMOND 1080p
Default : Yes
Forced : No
Color range : Limited
Color primaries : BT.709
Transfer characteristics : BT.709
Matrix coefficients : BT.709

Audio #1
ID : 2
Format : AC-3
Format/Info : Audio Coding 3
Format settings, Endianness : Big
Codec ID : A_AC3
Duration : 1 h 26 min
Bit rate mode : Constant
Bit rate : 384 kb/s
Channel(s) : 2 channels
Channel positions : Front: L R
Sampling rate : 48.0 kHz
Frame rate : 31.250 FPS (1536 SPF)
Bit depth : 16 bits
Compression mode : Lossy
Stream size : 238 MiB (7%)
Title : HDRezka_Studio
Language : Russian
Service kind : Complete Main
Default : Yes
Forced : No

Audio #2
ID : 3
Format : AC-3
Format/Info : Audio Coding 3
Format settings, Endianness : Big
Codec ID : A_AC3
Duration : 1 h 26 min
Bit rate mode : Constant
Bit rate : 384 kb/s
Channel(s) : 6 channels
Channel positions : Front: L C R, Side: L R, LFE
Sampling rate : 48.0 kHz
Frame rate : 31.250 FPS (1536 SPF)
Bit depth : 16 bits
Compression mode : Lossy
Stream size : 238 MiB (7%)
Language : English
Service kind : Complete Main
Default : No
Forced : No

Menu
00:00:00.000 : en:Chapter 1
00:02:12.257 : en:Chapter 2
00:04:32.397 : en:Chapter 3
00:09:38.203 : en:Chapter 4
00:11:35.403 : en:Chapter 5
00:14:00.381 : en:Chapter 6
00:18:47.752 : en:Chapter 7
00:21:58.526 : en:Chapter 8
00:24:10.574 : en:Chapter 9
00:28:56.151 : en:Chapter 10
00:32:28.363 : en:Chapter 11
00:36:13.338 : en:Chapter 12
00:39:03.508 : en:Chapter 13
00:42:16.034 : en:Chapter 14
00:44:14.026 : en:Chapter 15
00:46:48.472 : en:Chapter 16
00:48:45.297 : en:Chapter 17
00:50:54.343 : en:Chapter 18
00:52:39.281 : en:Chapter 19
00:54:07.953 : en:Chapter 20
00:57:31.406 : en:Chapter 21
00:59:52.631 : en:Chapter 22
01:03:43.778 : en:Chapter 23
01:05:56.786 : en:Chapter 24
01:09:28.706 : en:Chapter 25
01:13:15.224 : en:Chapter 26
01:18:28.454 : en:Chapter 27
01:22:12.845 : en:Chapter 28



Скачать 10.на.10.10x10.(Сьюзи.Юинг).[2018.триллер.WEB-DL].[1080p].[MVO].(HDrezka.Studio).torrent без регистрации
Золото ЗОЛОТАЯ РАЗДАЧА! СКАЧАННОЕ НЕ ЗАСЧИТЫВАЕТСЯ! Золото
Дата: Зарегистрирован   [ Тип: внутренний ] Как тут cкачать?
MAGNET ссылка
MAGNET ссылка


Скачать .torrent

18 KB

Статус: проверено DHT
Скачан: торрент - 136 раз, раздача полностью - 148 раз
Размер: 3,47 GB
Оценка:  - (Голосов: 0)
Поблагодарили: 3
Поделиться ссылкой на эту раздачу с друзьями:
В контактеFacebookОдноклассникиTwitterLivejournalМой МирLiveinternet
 

 
Показать сообщения:    


Вы не можете начинать темы
Вы не можете отвечать на сообщения
Вы не можете редактировать свои сообщения
Вы не можете удалять свои сообщения
Вы не можете голосовать в опросах
Вы не можете прикреплять файлы к сообщениям
Вы можете скачивать файлы