Loading...
Error

Скачать Бегущие по краю / Ridge Runners (Хантер Вест) [2018, триллер, драма, криминал, WEBRip] [1080p] [MVO (GreenРай Studio)] торрент без регистрации

Статистика раздачи
Размер:  4,44 GB   |    Скачан:  78 раз

Полного источника не было: 20 минут

 
 
 
Автор Сообщение

МихаНЕзатор

[] 

Информация о фильме
Год выхода: 2018
Название: Бегущие по краю
Оригинальное название: Ridge Runners
Произведено: США
Жанр: триллер, драма, криминал
Режиссер: Хантер Вест

В ролях: Дженника Шварцман, Остин Хейли, Кристофер Хауэлл, Джейсон Томпсон, Чарли Грэхэм, Кэйтлин Кови, Райан Шварцман

О фильме: Когда в маленьком американском городке пропадает 12-летняя девочка, детектив Рейчел Уиллоу обнаруживает, что в корне этого преступления лежит нечто ужасное, то, что, казалось бы, невозможно в столь тесном сообществе, то, что кажется немыслимым в 21 веке - торговля людьми.

Релиз от:

Внимание, имеется видео и аудио реклама от спонсора показа

Файл
Качество: WEBRip 1080p
Видео данные: MKV, 1920x810 (2:40:1), 23.976 fps, 7739 Кбит/с
Аудио данные: AAC, 2 ch, 125 Кбит/с
Перевод: Любительский многоголосый (GreenРай Studio)
Продолжительность: 01:20:46
General
Unique ID : 168040034219614933515228731607231960865 (0x7E6B5558202CD00142FDE6F48F431721)
Complete name : D:ГРИНРАЙRidge.Runners.2018.P.WEBDL.1080p.mkv
Format : Matroska
Format version : Version 4 / Version 2
File size : 4.44 GiB
Duration : 1 h 20 min
Overall bit rate : 7 867 kb/s
Encoded date : UTC 2018-03-26 23:28:37
Writing application : mkvmerge v21.0.0 ('Tardigrades Will Inherit The Earth') 64-bit
Writing library : libebml v1.3.5 + libmatroska v1.4.8

Video
ID : 1
Format : AVC
Format/Info : Advanced Video Codec
Format profile : High@L4
Format settings : CABAC / 1 Ref Frames
Format settings, CABAC : Yes
Format settings, RefFrames : 1 frame
Format settings, GOP : M=1, N=30
Codec ID : V_MPEG4/ISO/AVC
Duration : 1 h 20 min
Bit rate : 7 739 kb/s
Width : 1 920 pixels
Height : 810 pixels
Display aspect ratio : 2.40:1
Frame rate mode : Constant
Frame rate : 23.976 (24000/1001) FPS
Color space : YUV
Chroma subsampling : 4:2:0
Bit depth : 8 bits
Scan type : Progressive
Bits/(Pixel*Frame) : 0.208
Stream size : 4.37 GiB (98%)
Language : English
Default : Yes
Forced : No

Audio
ID : 2
Format : AAC
Format/Info : Advanced Audio Codec
Format profile : LC
Codec ID : A_AAC-2
Duration : 1 h 20 min
Bit rate : 125 kb/s
Channel(s) : 2 channels
Channel positions : Front: L R
Sampling rate : 48.0 kHz
Frame rate : 46.875 FPS (1024 SPF)
Compression mode : Lossy
Stream size : 72.5 MiB (2%)
Language : English
Default : Yes
Forced : No



Скачать Бегущие.по.краю.Ridge.Runners.(Хантер.Вест).[2018.триллер.драма.криминал.WEBRip].[1080p].[MVO.(GreenРай.Studio)].torrent без регистрации
Золото ЗОЛОТАЯ РАЗДАЧА! СКАЧАННОЕ НЕ ЗАСЧИТЫВАЕТСЯ! Золото
Дата: Зарегистрирован   [ Тип: внутренний ] Как тут cкачать?
MAGNET ссылка
MAGNET ссылка


Скачать .torrent

12 KB

Статус: проверено DHT
Скачан: торрент - 78 раз, раздача полностью - 67 раз
Размер: 4,44 GB
Оценка:  - (Голосов: 0)
Поблагодарили: 2
Поделиться ссылкой на эту раздачу с друзьями:
В контактеFacebookОдноклассникиTwitterLivejournalМой МирLiveinternet
 

 
Показать сообщения:    


Вы не можете начинать темы
Вы не можете отвечать на сообщения
Вы не можете редактировать свои сообщения
Вы не можете удалять свои сообщения
Вы не можете голосовать в опросах
Вы не можете прикреплять файлы к сообщениям
Вы можете скачивать файлы