Loading...
Error

Скачать Приключения Паддингтона 2 / Paddington 2 (Пол Кинг) [2017, Фэнтези, комедия, семейный, BDRip][1080p] [DUB RUS UKR iTunes] [R.G. GoldenShara] торрент без регистрации

Статистика раздачи
Размер:  4,59 GB   |    Скачан:  103 раза
Сидов:  2  [  0 KB/s  ]   Личеров:  1  [  0 KB/s  ]  
 
 
 
Автор Сообщение

Magnetto83

[] 


Приключения Паддингтона 2 / Paddington 2


Год выпуска: 2017
Выпущено: Великобритания, Франция, США | Amazon Prime Instant Video
Жанр: Фэнтези, комедия, семейный
Продолжительность: 01:43:18
Перевод 1 и 2: Профессиональный (полное дублирование) | iTunes |
Субтитры: Английские (Full+SHD)
Навигация по главам: Сохранены оригинальные главы как на Blu-ray

Слоган: «Хорошо воспитанный медведь, покоривший весь мир!»

Режиссер: Пол Кинг

В ролях: Майкл Гэмбон, Имелда Стонтон, Бен Уишоу, Мадлен Харрис, Сэмюэл Джослин, Салли Хокинс, Хью Бонневилль, Джули Уолтерс, Мари-Франс Альварез, Санджив Бхаскар

Описание: В антикварном магазине Лондона обаятельный и хорошо воспитанный медведь Паддингтон находит уникальную старинную книгу. Пока он изо всех своих медвежьих сил старается накопить на нее деньги, редчайшее издание внезапно похищают. Паддингтон оказывается вовлечен в аферу века, затеянную знаменитым, но вышедшим в тираж актером, который ныне рекламирует собачьи консервы, а свой талант к перевоплощению использует в охоте за сокровищами, спрятанными по всему Лондону.



Возраст: 6+ (зрителям, достигшим 6 лет)
Рейтинг MPAA: PG (рекомендуется присутствие родителей)

Качество: BDRip 1080p
Формат: MKV
Видео кодек: H.264
Аудио кодек: AC3
Видео: 1920x802 (2.40:1), 5601 Кбит/с, 24 fps
Аудио 1: Русский Dolby Digital 5.1 (384 Кбит/с) (Вшит в рип)
Аудио 2: Украинский Dolby Digital 5.1 (384 Кбит/с) (Отдельным файлом в папке)


x264 [info]: frame I:1486 Avg QP:16.78 size:220244
x264 [info]: frame P:35664 Avg QP:19.30 size: 54279
x264 [info]: frame B:111601 Avg QP:21.16 size: 18537
x264 [info]: consecutive B-frames: 2.9% 5.1% 13.8% 18.7% 16.5% 37.1% 3.7% 1.1% 1.2%
x264 [total]: encoded 148751 frames, 0.81 fps, 5591.31 kb/s



General
Complete name : G:\Видео\Мои Рипы 1080p\Кино-Хиты 2017\Приключения Паддингтона Ч.2 2017 Dub Rus Ukr iTunes BDRip 1080p\Приключения Паддингтона Ч.2 2017 Dub iTunes BDRip 1080p.mkv
Format : Matroska
Format version : Version 2
File size : 4.31 GiB
Duration : 1h 43mn
Overall bit rate : 5 978 Kbps
Movie name : Приключения Паддингтона Ч.2 2017 Dub Rus BDRip 1080p By R.G. GoldenShara
Encoded date : UTC 2018-03-23 08:57:05
Writing application : mkvmerge v5.2.0 ('I can't explain') built on Dec 18 2011 18:12:03
Writing library : libebml v1.2.3 + libmatroska v1.3.0
Attachements : Cover

Video
ID : 1
Format : AVC
Format/Info : Advanced Video Codec
Format profile : High@L4.1
Format settings, CABAC : Yes
Format settings, ReFrames : 5 frames
Codec ID : V_MPEG4/ISO/AVC
Duration : 1h 43mn
Bit rate : 5 601 Kbps
Width : 1 920 pixels
Height : 802 pixels
Display aspect ratio : 2.40:1
Frame rate mode : Constant
Frame rate : 24.000 fps
Color space : YUV
Chroma subsampling : 4:2:0
Bit depth : 8 bits
Scan type : Progressive
Bits/(Pixel*Frame) : 0.152
Stream size : 3.95 GiB (92%)
Title : Приключения Паддингтона Ч.2 2017 BDRip 1080p By Magnetto 83
Writing library : x264 core 146 r2538 121396c
Encoding settings : cabac=1 / ref=5 / deblock=1:-1:-1 / analyse=0x3:0x113 / me=umh / subme=11 / psy=1 / psy_rd=1.00:0.00 / mixed_ref=1 / me_range=32 / chroma_me=1 / trellis=2 / 8x8dct=1 / cqm=0 / deadzone=21,11 / fast_pskip=0 / chroma_qp_offset=-2 / threads=3 / lookahead_threads=1 / sliced_threads=0 / nr=0 / decimate=1 / interlaced=0 / bluray_compat=0 / constrained_intra=0 / bframes=8 / b_pyramid=2 / b_adapt=2 / b_bias=0 / direct=3 / weightb=1 / open_gop=0 / weightp=2 / keyint=250 / keyint_min=23 / scenecut=40 / intra_refresh=0 / rc=2pass / mbtree=0 / bitrate=5601 / ratetol=1.0 / qcomp=0.60 / qpmin=0 / qpmax=69 / qpstep=4 / cplxblur=20.0 / qblur=0.5 / ip_ratio=1.40 / pb_ratio=1.30 / aq=2:1.00
Language : English
Default : Yes
Forced : No

Audio
ID : 2
Format : AC-3
Format/Info : Audio Coding 3
Mode extension : CM (complete main)
Format settings, Endianness : Big
Codec ID : A_AC3
Duration : 1h 43mn
Bit rate mode : Constant
Bit rate : 384 Kbps
Channel(s) : 6 channels
Channel positions : Front: L C R, Side: L R, LFE
Sampling rate : 48.0 KHz
Compression mode : Lossy
Stream size : 284 MiB (6%)
Title : DD 5.1 @ 384 Kbps - Dub | iTunes |
Language : Russian
Default : Yes
Forced : No

Text #1
ID : 3
Format : UTF-8
Codec ID : S_TEXT/UTF8
Codec ID/Info : UTF-8 Plain Text
Title : Full
Language : English
Default : No
Forced : No

Text #2
ID : 4
Format : UTF-8
Codec ID : S_TEXT/UTF8
Codec ID/Info : UTF-8 Plain Text
Title : SDH
Language : English
Default : No
Forced : No

Menu
00:00:00.000 : en:00:00:00.000
00:08:08.542 : en:00:08:08.542
00:18:48.583 : en:00:18:48.583
00:27:06.000 : en:00:27:06.000
00:38:47.375 : en:00:38:47.375
00:47:46.917 : en:00:47:46.917
00:55:53.708 : en:00:55:53.708
01:02:17.500 : en:01:02:17.500
01:09:31.875 : en:01:09:31.875
01:16:39.042 : en:01:16:39.042
01:24:13.250 : en:01:24:13.250
01:33:50.000 : en:01:33:50.000







Скачать Приключения.Паддингтона.2.Paddington.2.(Пол.Кинг).[2017.Фэнтези.комедия.семейный.BDRip][1080p].[DUB.RUS.UKR.iTunes].[R.G.GoldenShara].torrent без регистрации
Золото ЗОЛОТАЯ РАЗДАЧА! СКАЧАННОЕ НЕ ЗАСЧИТЫВАЕТСЯ! Золото
Дата: Зарегистрирован   [ Тип: внутренний ] Как тут cкачать?
MAGNET ссылка
MAGNET ссылка


Скачать .torrent

12 KB

Статус: Τ временная раздача
Скачан: торрент - 103 раз, раздача полностью - 44 раз
Размер: 4,59 GB
Оценка:  5 (Голосов: 7)
Поблагодарили: 14
Поделиться ссылкой на эту раздачу с друзьями:
В контактеFacebookОдноклассникиTwitterLivejournalМой МирLiveinternet
 

 
Показать сообщения:    


Вы не можете начинать темы
Вы не можете отвечать на сообщения
Вы не можете редактировать свои сообщения
Вы не можете удалять свои сообщения
Вы не можете голосовать в опросах
Вы не можете прикреплять файлы к сообщениям
Вы можете скачивать файлы