Loading...
Error

Скачать Джуманджи / Jumanji (Джо Джонстон) [1995, фэнтези, боевик, приключения, BDRip] [720p] [60 fps] [Dub]+[MVO]x2+[AVO]x4+[Оригинал]+[Sub Rus, Eng]x2 торрент без регистрации

Статистика раздачи
Размер:  12,19 GB   |    Скачан:  29 раз
Сидов:  4  [  0 KB/s  ]   Личеров:  1  [  0 KB/s  ]  
 
 
 
Автор Сообщение

Marsianka

[] 

Год выпуска: 1995
Страна: США
Жанр: фэнтези, боевик, приключения
Продолжительность: 01:44:06
Перевод: Dub, MVO, AVO, Oridinal
Субтитры: Русские (полные), Английские (полные)

Режиссер: Джо Джонстон

В ролях: Робин Уильямс, Бонни Хант, Кирстен Данст, Брэдли Пирс, Биби Ньювирт, Джонатан Хайд, Дэвид Алан Грир, Патришия Кларксон, Адам Хэнн-Берд, Лаура Белл Банди

Описание: Случайно обнаружив настольную игру со странным названием «Джуманджи» Алан Пэрриш, не зная о ее сверхъестественных свойствах, на глазах изумленной подружки переносится в джунгли.Долгие годы он находится в потустороннем мире, до тех пор, пока двое ни о чем не подозревающих подростков не находят игру и не снимают волшебные чары, освобождая Алана из многолетнего плена.



Качество: BDRip 720p / 60 FPS
Формат: MKV
Видео кодек: H.264
Аудио кодек: AC3
Видео: AVC, 1280x536 (2.40:1), 13800 kbps, 60.000 fps, 0.260 bpp
Аудио#1: AC3 / 5.1 / 48 kHz / 448 kbps / 16 bit | Дубляж
Аудио#2: AC3 / 2.0 / 48 kHz / 448 kbps / 16 bit | MVO (Супербит)
Аудио#3: AC3 / 5.1 / 48 kHz / 192 kbps / 16 bit | MVO (Видеосервис)
Аудио#4: AC3 / 5.1 / 48 kHz / 448 kbps / 16 bit | AVO Гаврилов
Аудио#5: AC3 / 2.0 / 48 kHz / 192 kbps / 16 bit | AVO Гаврилов (Старый)
Аудио#6: AC3 / 5.1 / 48 kHz / 448 kbps / 16 bit | AVO Живов
Аудио#7: AC3 / 2.0 / 48 kHz / 192 kbps / 16 bit | AVO Визгунов
Аудио#8: AC3 / 5.1 / 48 kHz / 448 kbps / 16 bit | Original
Аудио#9: AC3 / 2.0 / 48 kHz / 192 kbps / 16 bit | Комментарии
General
Unique ID : 157487127037661339117135134052523909745 (0x767AEAD9878531775AF5233FB9532271)
Complete name : D:TorrentsДжуманджи 1995 BDRip 720p 60fps.mkv
Format : Matroska
Format version : Version 4 / Version 2
File size : 12.2 GiB
Duration : 1 h 44 min
Overall bit rate : 16.8 Mb/s
Encoded date : UTC 2018-03-28 01:46:20
Writing application : mkvmerge v20.0.0 ('I Am The Sun') 64-bit
Writing library : libebml v1.3.5 + libmatroska v1.4.8
Attachments : poster.jpg

Video
ID : 1
Format : AVC
Format/Info : Advanced Video Codec
Format profile : High@L4.1
Format settings : CABAC / 9 Ref Frames
Format settings, CABAC : Yes
Format settings, ReFrames : 9 frames
Codec ID : V_MPEG4/ISO/AVC
Duration : 1 h 44 min
Bit rate : 13.8 Mb/s
Width : 1 280 pixels
Height : 688 pixels
Display aspect ratio : 1.85:1
Frame rate mode : Constant
Frame rate : 60.000 FPS
Color space : YUV
Chroma subsampling : 4:2:0
Bit depth : 8 bits
Scan type : Progressive
Bits/(Pixel*Frame) : 0.260
Stream size : 10.0 GiB (82%)
Writing library : x264 core 146 r2538 121396c
Encoding settings : cabac=1 / ref=9 / deblock=1:-2:-2 / analyse=0x3:0x133 / me=umh / subme=10 / psy=1 / psy_rd=1.00:0.00 / mixed_ref=1 / me_range=32 / chroma_me=1 / trellis=2 / 8x8dct=1 / cqm=0 / deadzone=21,11 / fast_pskip=0 / chroma_qp_offset=-2 / threads=12 / lookahead_threads=2 / sliced_threads=0 / nr=0 / decimate=1 / interlaced=0 / bluray_compat=0 / constrained_intra=0 / bframes=8 / b_pyramid=2 / b_adapt=2 / b_bias=0 / direct=3 / weightb=1 / open_gop=0 / weightp=2 / keyint=240 / keyint_min=24 / scenecut=40 / intra_refresh=0 / rc_lookahead=60 / rc=crf / mbtree=0 / crf=16.0 / qcomp=0.80 / qpmin=0 / qpmax=69 / qpstep=4 / vbv_maxrate=62500 / vbv_bufsize=78125 / crf_max=0.0 / nal_hrd=none / filler=0 / ip_ratio=1.40 / pb_ratio=1.30 / aq=1:1.00
Language : English
Default : Yes
Forced : No

Audio #1
ID : 2
Format : AC-3
Format/Info : Audio Coding 3
Codec ID : A_AC3
Duration : 1 h 44 min
Bit rate mode : Constant
Bit rate : 448 kb/s
Channel(s) : 6 channels
Channel positions : Front: L C R, Side: L R, LFE
Sampling rate : 48.0 kHz
Frame rate : 31.250 FPS (1536 SPF)
Bit depth : 16 bits
Compression mode : Lossy
Stream size : 334 MiB (3%)
Title : Дубляж
Language : Russian
Service kind : Complete Main
Default : Yes
Forced : No

Audio #2
ID : 3
Format : AC-3
Format/Info : Audio Coding 3
Codec ID : A_AC3
Duration : 1 h 44 min
Bit rate mode : Constant
Bit rate : 448 kb/s
Channel(s) : 6 channels
Channel positions : Front: L C R, Side: L R, LFE
Sampling rate : 48.0 kHz
Frame rate : 31.250 FPS (1536 SPF)
Bit depth : 16 bits
Compression mode : Lossy
Stream size : 334 MiB (3%)
Title : Многоголосый (Супербит)
Language : Russian
Service kind : Complete Main
Default : No
Forced : No

Audio #3
ID : 4
Format : AC-3
Format/Info : Audio Coding 3
Codec ID : A_AC3
Duration : 1 h 44 min
Bit rate mode : Constant
Bit rate : 192 kb/s
Channel(s) : 2 channels
Channel positions : Front: L R
Sampling rate : 48.0 kHz
Frame rate : 31.250 FPS (1536 SPF)
Bit depth : 16 bits
Compression mode : Lossy
Stream size : 143 MiB (1%)
Title : Многоголосый (Видеосервис)
Language : Russian
Service kind : Complete Main
Default : No
Forced : No

Audio #4
ID : 5
Format : AC-3
Format/Info : Audio Coding 3
Codec ID : A_AC3
Duration : 1 h 44 min
Bit rate mode : Constant
Bit rate : 448 kb/s
Channel(s) : 6 channels
Channel positions : Front: L C R, Side: L R, LFE
Sampling rate : 48.0 kHz
Frame rate : 31.250 FPS (1536 SPF)
Bit depth : 16 bits
Compression mode : Lossy
Stream size : 334 MiB (3%)
Title : Гвврилов
Language : Russian
Service kind : Complete Main
Default : No
Forced : No

Audio #5
ID : 6
Format : AC-3
Format/Info : Audio Coding 3
Codec ID : A_AC3
Duration : 1 h 44 min
Bit rate mode : Constant
Bit rate : 192 kb/s
Channel(s) : 2 channels
Channel positions : Front: L R
Sampling rate : 48.0 kHz
Frame rate : 31.250 FPS (1536 SPF)
Bit depth : 16 bits
Compression mode : Lossy
Stream size : 143 MiB (1%)
Title : Гаврилов (старый)
Language : Russian
Service kind : Complete Main
Default : No
Forced : No

Audio #6
ID : 7
Format : AC-3
Format/Info : Audio Coding 3
Codec ID : A_AC3
Duration : 1 h 44 min
Bit rate mode : Constant
Bit rate : 448 kb/s
Channel(s) : 6 channels
Channel positions : Front: L C R, Side: L R, LFE
Sampling rate : 48.0 kHz
Frame rate : 31.250 FPS (1536 SPF)
Bit depth : 16 bits
Compression mode : Lossy
Stream size : 334 MiB (3%)
Title : Живов
Language : Russian
Service kind : Complete Main
Default : No
Forced : No

Audio #7
ID : 8
Format : AC-3
Format/Info : Audio Coding 3
Codec ID : A_AC3
Duration : 1 h 44 min
Bit rate mode : Constant
Bit rate : 192 kb/s
Channel(s) : 2 channels
Channel positions : Front: L R
Sampling rate : 48.0 kHz
Frame rate : 31.250 FPS (1536 SPF)
Bit depth : 16 bits
Compression mode : Lossy
Stream size : 143 MiB (1%)
Title : Визгунов
Language : Russian
Service kind : Complete Main
Default : No
Forced : No

Audio #8
ID : 9
Format : AC-3
Format/Info : Audio Coding 3
Codec ID : A_AC3
Duration : 1 h 44 min
Bit rate mode : Constant
Bit rate : 448 kb/s
Channel(s) : 6 channels
Channel positions : Front: L C R, Side: L R, LFE
Sampling rate : 48.0 kHz
Frame rate : 31.250 FPS (1536 SPF)
Bit depth : 16 bits
Compression mode : Lossy
Stream size : 334 MiB (3%)
Language : English
Service kind : Complete Main
Default : No
Forced : No

Audio #9
ID : 10
Format : AC-3
Format/Info : Audio Coding 3
Codec ID : A_AC3
Duration : 1 h 44 min
Bit rate mode : Constant
Bit rate : 192 kb/s
Channel(s) : 2 channels
Channel positions : Front: L R
Sampling rate : 48.0 kHz
Frame rate : 31.250 FPS (1536 SPF)
Bit depth : 16 bits
Compression mode : Lossy
Stream size : 143 MiB (1%)
Title : комментарии
Language : English
Service kind : Complete Main
Default : No
Forced : No

Text #1
ID : 11
Format : UTF-8
Codec ID : S_TEXT/UTF8
Codec ID/Info : UTF-8 Plain Text
Duration : 1 h 37 min
Bit rate : 48 b/s
Count of elements : 638
Stream size : 34.5 KiB (0%)
Language : Russian
Default : No
Forced : No

Text #2
ID : 12
Format : UTF-8
Codec ID : S_TEXT/UTF8
Codec ID/Info : UTF-8 Plain Text
Duration : 1 h 37 min
Bit rate : 41 b/s
Count of elements : 975
Stream size : 29.9 KiB (0%)
Language : English
Default : No
Forced : No

Menu
00:00:00.000 : en:Chapter 1
00:08:17.205 : en:Chapter 2
00:15:17.542 : en:Chapter 3
00:20:29.019 : en:Chapter 4
00:28:11.189 : en:Chapter 5
00:33:07.110 : en:Chapter 6
00:41:06.756 : en:Chapter 7
00:45:01.324 : en:Chapter 8
00:48:23.359 : en:Chapter 9
00:55:13.018 : en:Chapter 10
01:00:24.788 : en:Chapter 11
01:08:21.139 : en:Chapter 12
01:16:12.610 : en:Chapter 13
01:23:27.586 : en:Chapter 14
01:28:55.956 : en:Chapter 15
01:34:51.269 : en:Chapter 16
Авторская группа в ВК



Скачать Джуманджи.Jumanji.(Джо.Джонстон).[1995.фэнтези.боевик.приключения.BDRip].[720p].[60.fps].[Dub]+[MVO]x2+[AVO]x4+[Оригинал]+[Sub.Rus.Eng]x2.torrent без регистрации
Золото ЗОЛОТАЯ РАЗДАЧА! СКАЧАННОЕ НЕ ЗАСЧИТЫВАЕТСЯ! Золото
Дата: Зарегистрирован   [ Тип: внешний ] Как тут cкачать?
MAGNET ссылка
MAGNET ссылка


Скачать .torrent

31 KB

Статус: проверено DHT
Скачан: торрент - 29 раз, раздача полностью - 0 раз
Размер: 12,19 GB
Оценка:  - (Голосов: 0)
Поблагодарили: 0
Поделиться ссылкой на эту раздачу с друзьями:
В контактеFacebookОдноклассникиTwitterLivejournalМой МирLiveinternet
 

 
Показать сообщения:    


Вы не можете начинать темы
Вы не можете отвечать на сообщения
Вы не можете редактировать свои сообщения
Вы не можете удалять свои сообщения
Вы не можете голосовать в опросах
Вы не можете прикреплять файлы к сообщениям
Вы можете скачивать файлы