Loading...
Error

Скачать Дикая Япония / Wildes Japan (Йенс Вестфален, Торальф Гроспитц) [2010, документальный, BDRemux] [1080i] [AVO (Юрий Сербин)] торрент без регистрации

Статистика раздачи
Размер:  18,44 GB   |    Скачан:  32 раза

Полного источника не было: 30 минут

 
 
 
Автор Сообщение

Marsianka

[] 

Информация о фильме
Название: Дикая Япония
Оригинальное: Wildes Japan
Год выхода: 2010
Жанр: документальный
Режиссер: Йенс Вестфален, Торальф Гроспитц

О фильме:
Этот документальный фильм с живописными пейзажами, описывает дикую природу Японии, с захватывающими дух ландшафтами и населяющими ее редкими животными. Этот фильм - сенсационная поездка по Дикой Японии - островному государству, полному противоположностей. Крайне редко где можно встретить такое многообразие и различия флоры и фауны в пределах одной страны. Фильм расскажет как о мегаполисах, таких как Токио, с одной стороны и отдаленных горных долинах, с древнейшими историческими традициями, с другой. Фильм состоит из двух частей: "Снежные обезьяны и вулканы" и "Тропическое побережье и страна медведей".



Страна: Германия
Продолжительность: 00:43:20 + 00:43:22м
Перевод: Авторский | Юрий Сербин

Файл
Кодек: MPEG-4 AVC
Качество: BDRemux 1080i | A - оформляю
Видео: 1920x1080, 28,0 Мбит/с, 25 кадр/с
Звук: DTS-HD MA, 6 каналов, 2422 Кбит/с
Общее
Уникальный идентификатор : 301655355046353918028624877838447266025 (0xE2F0B547256814F738DCA1216659C8E9)
Полное имя : C:UsersDVideosДИКАЯ ЯПОНИЯ1. СНЕЖНЫЕ ОБЕЗЬЯНЫ И ВУЛКАНЫ.mkv
Формат : Matroska
Версия формата : Version 4 / Version 2
Размер файла : 9,21 Гбайт
Продолжительность : 43 м. 21 с.
Режим общего битрейта : Переменный
Общий поток : 30,4 Мбит/сек
Дата кодирования : UTC 2018-03-22 05:01:48
Программа кодирования : mkvmerge v21.0.0 ('Tardigrades Will Inherit The Earth') 64-bit
Библиотека кодирования : libebml v1.3.5 + libmatroska v1.4.8

Видео
Идентификатор : 1
Формат : MPEG Video
Версия формата : Version 2
Профиль формата : Main@High
Настройки формата : CustomMatrix / BVOP
Параметр BVOP формата : Да
Параметр матрицы формата : Выборочная
Параметр GOP формата : M=3, N=13
Структура изображения : Frame
Идентификатор кодека : V_MPEG2
Идентификатор кодека/Информация : MPEG 1 or 2 Video
Продолжительность : 43 м. 20 с.
Вид битрейта : Переменный
Битрейт : 28,0 Мбит/сек
Максимальный битрейт : 30,0 Мбит/сек
Ширина : 1920 пикселей
Высота : 1080 пикселей
Соотношение сторон : 16:9
Режим частоты кадров : Постоянный
Частота кадров : 25,000 кадров/сек
Стандарт вещания : Component
Цветовое пространство : YUV
Субдискретизация насыщенности : 4:2:0
Битовая глубина : 8 бит
Тип развёртки : Чересстрочная
Порядок развёртки : Верхнее поле первое
Метод сжатия : С потерями
Бит/(Пиксели*Кадры) : 0.540
Временной код первого кадра : 00:00:00:00
Оригинал временного кода : Group of pictures header
GOP, открыто/закрыто : Закрыто
Размер потока : 8,47 Гбайт (92%)
Библиотека кодирования : TMPGEnc XPress 4.7.7.307
Default : Да
Forced : Нет
Основные цвета : BT.709
Характеристики трансфера : BT.709
Коэффициенты матрицы : BT.709

Аудио
Идентификатор : 2
Формат : DTS
Формат/Информация : Digital Theater Systems
Профиль формата : MA / Core
Идентификатор кодека : A_DTS
Продолжительность : 43 м. 21 с.
Вид битрейта : Переменный / Постоянный
Битрейт : 2422 Кбит/сек / 1509 Кбит/сек
Каналы : 6 каналов
Расположение каналов : Front: L C R, Side: L R, LFE
Частота : 48,0 КГц
Частота кадров : 93,750 кадра/сек (512 SPF)
Битовая глубина : 16 бит
Метод сжатия : Без потерь / Lossy
Размер потока : 751 Мбайт (8%)
Язык : Russian
Default : Да
Forced : Нет



Скачать Дикая.Япония.Wildes.Japan.(Йенс.Вестфален.Торальф.Гроспитц).[2010.документальный.BDRemux].[1080i].[AVO.(Юрий.Сербин)].torrent без регистрации
Золото ЗОЛОТАЯ РАЗДАЧА! СКАЧАННОЕ НЕ ЗАСЧИТЫВАЕТСЯ! Золото
Дата: Зарегистрирован   [ Тип: внутренний ] Как тут cкачать?
MAGNET ссылка
MAGNET ссылка


Скачать .torrent

47 KB

Статус: проверено DHT
Скачан: торрент - 32 раз, раздача полностью - 3 раз
Размер: 18,44 GB
Оценка:  - (Голосов: 0)
Поблагодарили: 0
Поделиться ссылкой на эту раздачу с друзьями:
В контактеFacebookОдноклассникиTwitterLivejournalМой МирLiveinternet
 

 
Показать сообщения:    


Вы не можете начинать темы
Вы не можете отвечать на сообщения
Вы не можете редактировать свои сообщения
Вы не можете удалять свои сообщения
Вы не можете голосовать в опросах
Вы не можете прикреплять файлы к сообщениям
Вы можете скачивать файлы