Loading...
Error

Скачать Повелитель зверей / The Beastmaster (Дон Коскарелли) [1982, фэнтези, приключения, боевик, BDRip-AVC] [AVO]x3 торрент без регистрации

Статистика раздачи
Размер:  1,08 GB   |    Скачан:  29 раз
Сидов:  1  [  0 KB/s  ]  
 
 
 
Автор Сообщение

Marsianka

[] 

Информация о фильме
Название: Повелитель зверей
Оригинальное название: The Beastmaster
Год выхода: 1982
Жанр: фэнтези, приключения, боевик
Режиссер: Дон Коскарелли
В ролях: Марк Сингер, Таня Робертс, Рип Торн, Джон Эймос, Род Лумис, Джош Милрод, Бен Хаммер, Ральф Стрейт, Билли Джэйн, Джанет ДеМэй, Крис Келлогг, Джанет Джонс, Тони Эппер, Мик Тибодо, Пол Рейнольдс, Монти Л. Саймонс, Брюс Пол Барбо, Даймонд Фарнсворт, Линда Смит, Ларри Рэндлс, Джереми Вилан, Билли Хэнк Хукер, Джордж Скотт, Томми Дж. Хафф, Ричард Хэмпфри, Хью Армстронг, Майк Киртон, Эдди Донно, Гари МакЛарти, Фесс Рейнольдс, Чарльз Хикс

О фильме :
Воин по имени Дар после того, как орда жестоких джанов уничтожила его родной посёлок, отправляется искать мести. Отмеченный знаком бога-зверя, он понимает язык птиц и животных, и его спутники — огромный ночной тигр, парочка хитрецов-хорьков и орёл — помогают ему не только сражаться с людьми, но и с неведомыми существами, обитающими в тёмных лесах и сырых подземельях.



Выпущено: США, Германия (ФРГ)
Студия: United Artists, MGM
Продолжительность: 01:58:27
Перевод: Авторский одноголосый (Марченко, Дохалов, Сербин)

Файл
Формат: MKV
Качество: BDRip-AVC (BDRemux 1080p)
Видео: MPEG-4 AVC, 752x424, ~ 1080 Кбит/с
Аудио 1: AAC-HE, 2 ch, ~ 76 Кбит/с | Марченко Александр
Аудио 2: AAC-HE, 2 ch, ~ 76 Кбит/с | Дохалов Вартан
Аудио 3: AAC-HE, 2 ch, ~ 76 Кбит/с | Сербин Юрий
Субтитры: Нет
Общее
Уникальный идентификатор : 185578852587308767797672071363837197440 (0x8B9D2FDA453A1761806E06CD08EE7C80)
Полное имя : D:MOVIESThe_Beastmaster.1982.ExKinoRay.mkv
Формат : Matroska
Версия формата : Version 4 / Version 2
Размер файла : 1,08 Гбайт
Продолжительность : 1 ч. 58 м.
Общий поток : 1310 Кбит/сек
Дата кодирования : UTC 2018-03-28 14:26:17
Программа кодирования : mkvmerge v15.0.0 ('Duel with the Devil') 64-bit
Библиотека кодирования : libebml v1.3.5 + libmatroska v1.4.5

Видео
Идентификатор : 1
Формат : AVC
Формат/Информация : Advanced Video Codec
Профиль формата : High@L4.1
Параметр CABAC формата : Да
Параметр RefFrames формата : 10 кадров
Идентификатор кодека : V_MPEG4/ISO/AVC
Продолжительность : 1 ч. 58 м.
Битрейт : 1080 Кбит/сек
Ширина : 752 пикселя
Высота : 424 пикселя
Соотношение сторон : 16:9
Режим частоты кадров : Постоянный
Частота кадров : 23,976 (24000/1001) кадра/сек
Цветовое пространство : YUV
Субдискретизация насыщенности : 4:2:0
Битовая глубина : 8 бит
Тип развёртки : Прогрессивная
Бит/(Пиксели*Кадры) : 0.141
Размер потока : 914 Мбайт (82%)
Библиотека кодирования : x264 core 155 r2901 7d0ff22
Настройки программы : cabac=1 / ref=10 / deblock=1:-3:-3 / analyse=0x3:0x133 / me=umh / subme=11 / psy=1 / psy_rd=1.00:0.13 / mixed_ref=1 / me_range=32 / chroma_me=1 / trellis=2 / 8x8dct=1 / cqm=0 / deadzone=21,11 / fast_pskip=0 / chroma_qp_offset=-3 / threads=6 / lookahead_threads=1 / sliced_threads=0 / nr=0 / decimate=0 / interlaced=0 / bluray_compat=0 / constrained_intra=0 / bframes=10 / b_pyramid=2 / b_adapt=2 / b_bias=0 / direct=3 / weightb=1 / open_gop=0 / weightp=2 / keyint=240 / keyint_min=23 / scenecut=40 / intra_refresh=0 / rc_lookahead=40 / rc=2pass / mbtree=1 / bitrate=1080 / ratetol=1.0 / qcomp=0.60 / qpmin=0 / qpmax=69 / qpstep=4 / cplxblur=20.0 / qblur=0.5 / vbv_maxrate=50000 / vbv_bufsize=62500 / nal_hrd=none / filler=0 / ip_ratio=1.40 / aq=3:1.00
Default : Да
Forced : Нет

Аудио #1
Идентификатор : 2
Формат : AAC
Формат/Информация : Advanced Audio Codec
Профиль формата : HE-AAC / LC
Идентификатор кодека : A_AAC
Продолжительность : 1 ч. 58 м.
Битрейт : 76,0 Кбит/сек
Каналы : 2 канала
Расположение каналов : Front: L R
Частота : 48,0 КГц / 24,0 КГц
Частота кадров : 23,438 кадра/сек (1024 SPF)
Метод сжатия : С потерями
Задержка видео : 31 мс.
Размер потока : 64,4 Мбайт (6%)
Язык : Russian
Default : Да
Forced : Нет

Аудио #2
Идентификатор : 3
Формат : AAC
Формат/Информация : Advanced Audio Codec
Профиль формата : HE-AAC / LC
Идентификатор кодека : A_AAC
Продолжительность : 1 ч. 58 м.
Битрейт : 76,0 Кбит/сек
Каналы : 2 канала
Расположение каналов : Front: L R
Частота : 48,0 КГц / 24,0 КГц
Частота кадров : 23,438 кадра/сек (1024 SPF)
Метод сжатия : С потерями
Задержка видео : 31 мс.
Размер потока : 64,4 Мбайт (6%)
Язык : Russian
Default : Нет
Forced : Нет

Аудио #3
Идентификатор : 4
Формат : AAC
Формат/Информация : Advanced Audio Codec
Профиль формата : HE-AAC / LC
Идентификатор кодека : A_AAC
Продолжительность : 1 ч. 58 м.
Битрейт : 76,0 Кбит/сек
Каналы : 2 канала
Расположение каналов : Front: L R
Частота : 48,0 КГц / 24,0 КГц
Частота кадров : 23,438 кадра/сек (1024 SPF)
Метод сжатия : С потерями
Задержка видео : 31 мс.
Размер потока : 64,4 Мбайт (6%)
Язык : Russian
Default : Нет
Forced : Нет

Меню
00:00:00.000 : en:Chapter 01
00:01:38.056 : en:Chapter 02
00:16:22.147 : en:Chapter 03
00:29:23.762 : en:Chapter 04
00:39:43.839 : en:Chapter 05
00:49:28.632 : en:Chapter 06
00:55:43.757 : en:Chapter 07
01:01:40.697 : en:Chapter 08
01:12:19.335 : en:Chapter 09
01:24:21.014 : en:Chapter 10
01:33:37.695 : en:Chapter 11
01:41:53.690 : en:Chapter 12
01:55:32.425 : en:Chapter 13
Релиз от:



Скачать Повелитель.зверей.The.Beastmaster.(Дон.Коскарелли).[1982.фэнтези.приключения.боевик.BDRip-AVC].[AVO]x3.torrent без регистрации
Золото ЗОЛОТАЯ РАЗДАЧА! СКАЧАННОЕ НЕ ЗАСЧИТЫВАЕТСЯ! Золото
Дата: Зарегистрирован   [ Тип: внутренний ] Как тут cкачать?
MAGNET ссылка
MAGNET ссылка


Скачать .torrent

12 KB

Статус: проверено DHT
Скачан: торрент - 29 раз, раздача полностью - 2 раз
Размер: 1,08 GB
Оценка:  - (Голосов: 0)
Поблагодарили: 1
Поделиться ссылкой на эту раздачу с друзьями:
В контактеFacebookОдноклассникиTwitterLivejournalМой МирLiveinternet
 

 
Показать сообщения:    


Вы не можете начинать темы
Вы не можете отвечать на сообщения
Вы не можете редактировать свои сообщения
Вы не можете удалять свои сообщения
Вы не можете голосовать в опросах
Вы не можете прикреплять файлы к сообщениям
Вы можете скачивать файлы