Loading...
Error

Скачать Старое ружье / Le Vieux Fusil (Робер Энрико) [1975, драма, триллер, военный, UHD BDRemux] [2160p] [4K] [HDR] [Dub Rus]+[MVO Rus] +[Fre.]+[Eng]+[Sub Rus, Eng]x2 торрент без регистрации

Статистика раздачи
Размер:  44,56 GB   |    Скачан:  25 раз
Сидов:  1  [  0 KB/s  ]  
 
 
 
Автор Сообщение

Marsianka

[] 



Информация о фильме
Название: Старое ружье
Оригинальное название: Le Vieux Fusil
Год выхода: 1975
Жанр: драма, триллер, военный
Режиссер: Робер Энрико

В ролях: Филипп Нуаре, Роми Шнайдер, Жан Буиз, Иоахим Ханзен, Роберт Хоффманн, Карл Михаэль Фоглер, Каролина Бономм, Катрин Делапорт, Мадлен Озерэ, Даниэль Бретон

О фильме:
Франция, 1944 год. Хирург местной больницы, помогающий Сопротивлению, отсылает жену и дочь в деревню, а когда приезжает их навестить, видит тела зверски убитых людей, среди которых его застреленная дочь и соженная из огнемета жена. Эсэсовцы же все еще были на месте расправы, празднуя «победу» местного значения. Тогда хирург достает старое ружье, и начинается возмездие — доктор отлично знал все уголки этого старинного, неприступного замка, а дома, как говорится, и стены помогают…



Страна: Франция, Германия (ФРГ)
Студия: Les Productions Artistes Associés, Mercure Productions, TIT Filmproduktion GmbH
Продолжительность: 01:41:47
Перевод: Дублированный + Профессиональный многоголосый + Оригинал
Субтитры: Русские, английские

Файл
Качество: BDRemux 2160p
Видео: H.265/HEVC, 3840x2160, (16:9), 60 Mbps, 24.000 fps
Аудио 1: AC3, 2 ch, 192 kbps - Русский, Дубляж
Аудио 2: AC3, 2 ch, 192 kbps - Русский, многоголосый
Аудио 3: DTS-HD MA, 2 ch, 921 kbps - Французский
Аудио 4: DTS-HD MA, 2 ch, 1344 kbps - Английский


General
Unique ID : 194915260048000986237883194274263847315 (0x92A35047B9C623635052C92344FBD193)
Complete name : Le.vieux.fusil.1975.UHD.HDR.BDRemux.2160p.NovaLan.mkv
Format : Matroska
Format version : Version 4 / Version 2
File size : 44.6 GiB
Duration : 1 h 41 min
Overall bit rate : 62.6 Mb/s
Movie name : Le vieux fusil 1975 - NovaLan
Encoded date : UTC 2018-03-10 14:58:57
Writing application : mkvmerge v20.0.0 ('I Am The Sun') 64-bit
Writing library : libebml v1.3.5 + libmatroska v1.4.8

Video
ID : 1
Format : HEVC
Format/Info : High Efficiency Video Coding
Format profile : Main 10@L5.1@High
Codec ID : V_MPEGH/ISO/HEVC
Duration : 1 h 41 min
Bit rate : 60.0 Mb/s
Width : 3 840 pixels
Height : 2 160 pixels
Display aspect ratio : 16:9
Frame rate mode : Constant
Frame rate : 24.000 FPS
Color space : YUV
Chroma subsampling : 4:2:0 (Type 2)
Bit depth : 10 bits
Bits/(Pixel*Frame) : 0.301
Stream size : 42.7 GiB (96%)
Title : Le vieux fusil 1975 - NovaLan
Writing library : ATEME Titan File 3.8.0 (4.8.0.0)
Default : Yes
Forced : No
Color range : Limited
Color primaries : BT.2020
Transfer characteristics : PQ
Matrix coefficients : BT.2020 non-constant
Mastering display color primaries : Display P3
Mastering display luminance : min: 0.0000 cd/m2, max: 1000 cd/m2
Maximum Content Light Level : 425 cd/m2
Maximum Frame-Average Light Level : 162 cd/m2

Audio #1
ID : 2
Format : AC-3
Format/Info : Audio Coding 3
Codec ID : A_AC3
Duration : 1 h 41 min
Bit rate mode : Constant
Bit rate : 192 kb/s
Channel(s) : 2 channels
Channel positions : Front: L R
Sampling rate : 48.0 kHz
Frame rate : 31.250 FPS (1536 SPF)
Bit depth : 16 bits
Compression mode : Lossy
Stream size : 140 MiB (0%)
Language : Russian
Service kind : Complete Main
Default : Yes
Forced : No

Audio #2
ID : 3
Format : AC-3
Format/Info : Audio Coding 3
Codec ID : A_AC3
Duration : 1 h 41 min
Bit rate mode : Constant
Bit rate : 192 kb/s
Channel(s) : 2 channels
Channel positions : Front: L R
Sampling rate : 48.0 kHz
Frame rate : 31.250 FPS (1536 SPF)
Bit depth : 16 bits
Compression mode : Lossy
Stream size : 140 MiB (0%)
Language : Russian
Service kind : Complete Main
Default : No
Forced : No

Audio #3
ID : 4
Format : DTS
Format/Info : Digital Theater Systems
Format profile : MA / Core
Codec ID : A_DTS
Duration : 1 h 41 min
Bit rate mode : Variable / Constant
Bit rate : 921 kb/s / 768 kb/s
Channel(s) : 2 channels
Channel positions : Front: L R
Sampling rate : 48.0 kHz
Frame rate : 93.750 FPS (512 SPF)
Bit depth : 24 bits
Compression mode : Lossless / Lossy
Stream size : 671 MiB (1%)
Language : French
Default : No
Forced : No

Audio #4
ID : 5
Format : DTS
Format/Info : Digital Theater Systems
Format profile : MA / Core
Codec ID : A_DTS
Duration : 1 h 41 min
Bit rate mode : Variable / Constant
Bit rate : 1 344 kb/s / 768 kb/s
Channel(s) : 2 channels
Channel positions : Front: L R
Sampling rate : 48.0 kHz
Frame rate : 93.750 FPS (512 SPF)
Bit depth : 24 bits
Compression mode : Lossless / Lossy
Stream size : 974 MiB (2%)
Language : English
Default : No
Forced : No

Text #1
ID : 6
Format : UTF-8
Codec ID : S_TEXT/UTF8
Codec ID/Info : UTF-8 Plain Text
Duration : 1 h 35 min
Bit rate : 45 b/s
Count of elements : 564
Stream size : 32.0 KiB (0%)
Language : Russian
Default : No
Forced : No

Text #2
ID : 7
Format : UTF-8
Codec ID : S_TEXT/UTF8
Codec ID/Info : UTF-8 Plain Text
Duration : 1 h 36 min
Bit rate : 28 b/s
Count of elements : 569
Stream size : 20.1 KiB (0%)
Language : English
Default : No
Forced : No

Menu
00:00:00.000 : en:Chapter 1
00:09:00.000 : en:Chapter 2
00:20:08.375 : en:Chapter 3
00:27:11.125 : en:Chapter 4
00:37:32.166 : en:Chapter 5
00:44:31.416 : en:Chapter 6
00:52:38.916 : en:Chapter 7
01:03:49.375 : en:Chapter 8
01:12:44.583 : en:Chapter 9
01:19:38.708 : en:Chapter 10
01:25:21.708 : en:Chapter 11
01:30:40.666 : en:Chapter 12





Скачать Старое.ружье.Le.Vieux.Fusil.(Робер.Энрико).[1975.драма.триллер.военный.UHD.BDRemux].[2160p].[4K].[HDR].[Dub.Rus]+[MVO.Rus].+[Fre.]+[Eng]+[Sub.Rus.Eng]x2.torrent без регистрации
Золото ЗОЛОТАЯ РАЗДАЧА! СКАЧАННОЕ НЕ ЗАСЧИТЫВАЕТСЯ! Золото
Дата: Зарегистрирован   [ Тип: внутренний ] Как тут cкачать?
MAGNET ссылка
MAGNET ссылка


Скачать .torrent

224 KB

Статус: проверено DHT
Скачан: торрент - 25 раз, раздача полностью - 8 раз
Размер: 44,56 GB
Оценка:  - (Голосов: 0)
Поблагодарили: 0
Поделиться ссылкой на эту раздачу с друзьями:
В контактеFacebookОдноклассникиTwitterLivejournalМой МирLiveinternet
 

 
Показать сообщения:    


Вы не можете начинать темы
Вы не можете отвечать на сообщения
Вы не можете редактировать свои сообщения
Вы не можете удалять свои сообщения
Вы не можете голосовать в опросах
Вы не можете прикреплять файлы к сообщениям
Вы можете скачивать файлы