Loading...
Error

Скачать Наемник / Il Mercenario (Серджио Корбуччи) [1968, комедия, вестерн, BDRip] [720p] [MVO]+[Оригинал Eng]+[Sub Eng] торрент без регистрации

Статистика раздачи
Размер:  7,4 GB   |    Скачан:  25 раз
Сидов:  2  [  0 KB/s  ]  
 
 
 
Автор Сообщение

Marsianka

[] 

Информация о фильме
Русское название: Наемник / Профессиональный стрелок
Оригинальное название: Il Mercenario / A Professional Gun
Год выхода: 1968
Жанр: комедия, вестерн
Режиссер: Серджио Корбуччи
Выпущено: Италия, Испания, США
Продолжительность: 01:46:07
Перевод: Профессиональный (многоголосый закадровый)
В ролях: Франко Неро, Джек Паланс, Тони Мьюзанте, Джованна Ралли, Эдуардо Фахардо, Альваро Де Луна, Раф Бальдассарре, Висенте Рока, Хосе Каналехас

Описание:
Пако Роман, мексиканский крестьянин, восстаёт против местного богача и прелюдно оскорбляет его. Толстосум в отместку нанимает людей, чтобы убить Пако, но друзья спасают крестьянина. Тем временем в деревушку приезжает наёмный убийца поляк Сергей Ковальски, который должен организовать перевозку серебра…



Файл
Качество: BDRip 720p (исходник Blu-Ray Disc Remux)
Контейнер: MKV (расширение файла)
Видео: 1280x544, 9600 Кбит/сек, 23,976 кадр/сек, AVC, x264, High@L4.1, 2.35:1, 0.575 Бит/[Пиксели*Кадры]
Аудио 1: AC-3, 192 Кбит/сек, 1 канала(ов), 48,0 КГц - Многоголосый закадровый, Петербург - Пятый канал / Русский
Аудио 2: AC-3, 192 Кбит/сек, 1 канала(ов), 48,0 КГц - Оригинал / Английский
Субтитры: Английские | Полные
Форсированные субтитры: Нет
Чаптеры (Главы): Есть
Релиз от: Группа:

Format : Matroska
Format version : Version 2
File size : 7.40 GiB
Duration : 1 h 46 min
Overall bit rate : 9 985 kb/s
Movie name : Il mercenario.(1968).BDRip.720p.[envy]
Encoded date : UTC 2018-03-30 13:55:10
Writing application : mkvmerge v5.8.0 ('No Sleep / Pillow') built on Sep 2 2012 15:37:04
Writing library : libebml v1.2.3 + libmatroska v1.3.0

Video
ID : 1
Format : AVC
Format/Info : Advanced Video Codec
Format profile : High@L4.1
Format settings : CABAC / 10 Ref Frames
Format settings, CABAC : Yes
Format settings, ReFrames : 10 frames
Codec ID : V_MPEG4/ISO/AVC
Duration : 1 h 46 min
Bit rate : 9 600 kb/s
Width : 1 280 pixels
Height : 544 pixels
Display aspect ratio : 2.35:1
Frame rate mode : Constant
Frame rate : 23.976 (24000/1001) FPS
Color space : YUV
Chroma subsampling : 4:2:0
Bit depth : 8 bits
Scan type : Progressive
Bits/(Pixel*Frame) : 0.575
Stream size : 6.97 GiB (94%)
Title : Il mercenario.(1968).BDRip.720p.[envy]
Writing library : x264 core 155 r2901 7d0ff22
Encoding settings : cabac=1 / ref=10 / deblock=1:-3:-3 / analyse=0x3:0x113 / me=umh / subme=11 / psy=1 / psy_rd=1.00:0.09 / mixed_ref=1 / me_range=32 / chroma_me=1 / trellis=2 / 8x8dct=1 / cqm=0 / deadzone=21,11 / fast_pskip=0 / chroma_qp_offset=-3 / threads=12 / lookahead_threads=1 / sliced_threads=0 / nr=0 / decimate=1 / interlaced=0 / bluray_compat=0 / constrained_intra=0 / bframes=5 / b_pyramid=2 / b_adapt=2 / b_bias=0 / direct=3 / weightb=1 / open_gop=0 / weightp=2 / keyint=240 / keyint_min=23 / scenecut=40 / intra_refresh=0 / rc=2pass / mbtree=0 / bitrate=9600 / ratetol=1.0 / qcomp=0.60 / qpmin=0 / qpmax=69 / qpstep=4 / cplxblur=20.0 / qblur=0.5 / ip_ratio=1.40 / pb_ratio=1.30 / aq=1:0.60
Language : English
Default : Yes
Forced : No

Audio #1
ID : 2
Format : AC-3
Format/Info : Audio Coding 3
Codec ID : A_AC3
Duration : 1 h 46 min
Bit rate mode : Constant
Bit rate : 192 kb/s
Channel(s) : 1 channel
Channel positions : Front: C
Sampling rate : 48.0 kHz
Frame rate : 31.250 FPS (1536 SPF)
Bit depth : 16 bits
Compression mode : Lossy
Stream size : 146 MiB (2%)
Title : Петербург - Пятый канал
Language : Russian
Service kind : Complete Main
Default : Yes
Forced : No

Audio #2
ID : 3
Format : AC-3
Format/Info : Audio Coding 3
Codec ID : A_AC3
Duration : 1 h 46 min
Bit rate mode : Constant
Bit rate : 192 kb/s
Channel(s) : 1 channel
Channel positions : Front: C
Sampling rate : 48.0 kHz
Frame rate : 31.250 FPS (1536 SPF)
Bit depth : 16 bits
Compression mode : Lossy
Stream size : 146 MiB (2%)
Title : Eng
Language : English
Service kind : Complete Main
Default : No
Forced : No

Text
ID : 4
Format : UTF-8
Codec ID : S_TEXT/UTF8
Codec ID/Info : UTF-8 Plain Text
Title : Eng full
Language : English
Default : No
Forced : No

Menu
00:00:00.000 : :00:00:00.000
00:01:59.911 : :00:01:59.911
00:07:17.228 : :00:07:17.228
00:14:08.639 : :00:14:08.639
00:19:08.564 : :00:19:08.564
00:29:12.834 : :00:29:12.834
00:38:23.968 : :00:38:23.968
00:43:58.135 : :00:43:58.135
00:52:00.451 : :00:52:00.451
01:04:51.888 : :01:04:51.888
01:14:29.632 : :01:14:29.632
01:19:52.287 : :01:19:52.287
01:26:13.085 : :01:26:13.085
01:33:08.500 : :01:33:08.500
01:36:43.715 : :01:36:43.715
01:42:02.742 : :01:42:02.742



Скачать Наемник.Il.Mercenario.(Серджио.Корбуччи).[1968.комедия.вестерн.BDRip].[720p].[MVO]+[Оригинал.Eng]+[Sub.Eng].torrent без регистрации
Золото ЗОЛОТАЯ РАЗДАЧА! СКАЧАННОЕ НЕ ЗАСЧИТЫВАЕТСЯ! Золото
Дата: Зарегистрирован   [ Тип: внешний ] Как тут cкачать?
MAGNET ссылка
MAGNET ссылка


Скачать .torrent

149 KB

Статус: проверено DHT
Скачан: торрент - 25 раз, раздача полностью - 2 раз
Размер: 7,4 GB
Оценка:  - (Голосов: 0)
Поблагодарили: 0
Поделиться ссылкой на эту раздачу с друзьями:
В контактеFacebookОдноклассникиTwitterLivejournalМой МирLiveinternet
 

 
Показать сообщения:    


Вы не можете начинать темы
Вы не можете отвечать на сообщения
Вы не можете редактировать свои сообщения
Вы не можете удалять свои сообщения
Вы не можете голосовать в опросах
Вы не можете прикреплять файлы к сообщениям
Вы можете скачивать файлы