Loading...
Error

Скачать Клеопатра / Cleopatra (Джозеф Лео Манкевич) [1963, драма, мелодрама, биография, история, BDRip-AVC] [MVO (BD EUR)]+[Sub Rus, Eng]x2 торрент без регистрации

Статистика раздачи
Размер:  4,37 GB   |    Скачан:  27 раз
Сидов:  5  [  0 KB/s  ]  
 
 
 
Автор Сообщение

Marsianka

[] 

Информация о фильме
Название: Клеопатра
Оригинальное название: Cleopatra
Год выхода: 1963
Жанр: драма, мелодрама, биография, история
Режиссер: Джозеф Лео Манкевич / Joseph Leo Mankiewicz
В ролях: Элизабет Тейлор, Ричард Бёртон, Рекс Харрисон, Памела Браун, Джордж Коул, Хьюм Кронин, Чезаре Данова, Кеннет Хейг, Эндрю Кир, Мартин Ландау, Родди МакДауэлл, Роберт Стивенс, Франческа Эннис, Грегуар Аслан, Мартин Бенсон, Херберт Бергхоф, Джон Кэйрни, Жак Чан, Изабель Кули, Джон Дусетт, Эндрю Фолдс, Майкл Гвинн, Майкл Хордерн, Джон Хойт, Марни Мейтленд, Кэррол О’Коннор, Ричард О’Салливан, Гвен Уотфорд, Дуглас Уилмер, Элизабет Уэлш, Джон Алдерсон, Джон Элдертон, Рональд Аллен, Одри Андерсон, Мария Бадмаев, Мишель Байли, Марина Берти

О фильме:
Прекрасная Клеопатра, знаменитая царица Египта, готова на все ради сохранения величия своего народа. Соблазняя великих правителей Рима - Цезаря, Марка Антония - она мечтает об объединении Египта и Рима в одну большую империю.



Страна: США, Великобритания, Швейцария
Продолжительность: 04:11:08
Перевод: Профессиональный (многоголосый закадровый) (BD EUR)

Файл
Кодек: MPEG-4 AVC
Качество: BDRip-AVC
Видео: 1032x464, 1993 kbps, 23.967
Аудио: русский, многоголосый закадровый [BD EUR], AC3 5.1, 448 kbps
Субтитры: Русский (full), английский (full)
General
Complete name : D:VideoRipodelniaCleopatra.1963.BDRip.x264.Rus.Ripodelnia.mkv
Format : Matroska
File size : 4.37 GiB
Duration : 4h 11mn
Overall bit rate : 2 492 Kbps
Encoded date : UTC 2018-03-30 09:41:10
Writing application : mkvmerge v20.0.0 ('I Am The Sun') 64-bit
Writing library : libebml v1.3.5 + libmatroska v1.4.8

Video
ID : 1
Format : AVC
Format/Info : Advanced Video Codec
Format profile : High@L4.1
Format settings, CABAC : Yes
Format settings, ReFrames : 14 frames
Muxing mode : Container profile=Unknown@4.1
Codec ID : V_MPEG4/ISO/AVC
Duration : 4h 10mn
Bit rate : 1 994 Kbps
Nominal bit rate : 2 042 Kbps
Width : 1 032 pixels
Height : 464 pixels
Display aspect ratio : 2.224
Frame rate : 23.976 fps
Resolution : 24 bits
Colorimetry : 4:2:0
Scan type : Progressive
Bits/(Pixel*Frame) : 0.174
Stream size : 3.49 GiB (80%)
Title : Ripodelnia
Writing library : x264 core 155 r2901 7d0ff22
Encoding settings : cabac=1 / ref=14 / deblock=1:-2:-2 / analyse=0x3:0x133 / me=umh / subme=11 / psy=1 / psy_rd=0.96:0.00 / mixed_ref=1 / me_range=48 / chroma_me=1 / trellis=2 / 8x8dct=1 / cqm=0 / deadzone=21,11 / fast_pskip=0 / chroma_qp_offset=-2 / threads=4 / lookahead_threads=1 / sliced_threads=0 / nr=0 / decimate=0 / interlaced=0 / bluray_compat=0 / constrained_intra=0 / bframes=16 / b_pyramid=2 / b_adapt=2 / b_bias=0 / direct=3 / weightb=1 / open_gop=0 / weightp=2 / keyint=240 / keyint_min=23 / scenecut=40 / intra_refresh=0 / rc_lookahead=60 / rc=2pass / mbtree=0 / bitrate=2042 / ratetol=1.0 / qcomp=0.70 / qpmin=0 / qpmax=69 / qpstep=4 / cplxblur=20.0 / qblur=0.5 / vbv_maxrate=50000 / vbv_bufsize=62500 / nal_hrd=none / filler=0 / ip_ratio=1.40 / pb_ratio=1.30 / aq=2:0.80

Audio
ID : 2
Format : AC-3
Format/Info : Audio Coding 3
Codec ID : A_AC3
Duration : 4h 11mn
Bit rate mode : Constant
Bit rate : 448 Kbps
Channel(s) : 6 channels
Channel positions : Front: L C R, Surround: L R, LFE
Sampling rate : 48.0 KHz
Stream size : 805 MiB (18%)
Title : Russian (MVO, BD EUR)
Language : Russian

Text #1
ID : 3
Format : UTF-8
Codec ID : S_TEXT/UTF8
Codec ID/Info : UTF-8 Plain Text
Title : Russian (full)
Language : Russian

Text #2
ID : 4
Format : UTF-8
Codec ID : S_TEXT/UTF8
Codec ID/Info : UTF-8 Plain Text
Title : English (full)

Menu
00:00:00.000 : :Chapter 01
00:02:29.149 : :Chapter 02
00:04:56.169 : :Chapter 03
00:09:14.428 : :Chapter 04
00:18:11.506 : :Chapter 05
00:28:03.514 : :Chapter 06
00:32:19.771 : :Chapter 07
00:37:31.498 : :Chapter 08
00:43:50.460 : :Chapter 09
00:48:15.516 : :Chapter 10
00:49:53.823 : :Chapter 11
00:52:47.789 : :Chapter 12
00:57:49.298 : :Chapter 13
01:02:28.244 : :Chapter 14
01:06:10.674 : :Chapter 15
01:08:03.495 : :Chapter 16
01:14:00.644 : :Chapter 17
01:16:51.523 : :Chapter 18
01:20:36.456 : :Chapter 19
01:29:57.600 : :Chapter 20
01:31:11.465 : :Chapter 21
01:37:02.316 : :Chapter 22
01:41:45.515 : :Chapter 23
01:46:30.216 : :Chapter 24
01:51:30.349 : :Chapter 25
01:56:56.842 : :Chapter 26
01:59:34.500 : :Chapter 27
02:05:00.091 : :Chapter 28
02:09:35.199 : :Chapter 29
02:13:05.200 : :Chapter 30
02:20:21.218 : :Chapter 31
02:28:19.280 : :Chapter 32
02:34:41.370 : :Chapter 33
02:44:27.664 : :Chapter 34
02:47:18.834 : :Chapter 35
02:53:10.227 : :Chapter 36
02:58:12.155 : :Chapter 37
03:02:34.165 : :Chapter 38
03:05:31.843 : :Chapter 39
03:15:51.838 : :Chapter 40
03:21:18.164 : :Chapter 41
03:24:47.915 : :Chapter 42
03:27:02.508 : :Chapter 43
03:33:24.515 : :Chapter 44
03:38:38.495 : :Chapter 45
03:42:06.161 : :Chapter 46
03:48:15.488 : :Chapter 47
03:52:28.324 : :Chapter 48
03:56:08.294 : :Chapter 49
03:58:33.022 : :Chapter 50
04:02:18.997 : :Chapter 51
04:06:06.391 : :Chapter 52
04:09:07.530 : :Chapter 53
Релиз от: Ripodelnia (ex HQ Underverse)



Скачать Клеопатра.Cleopatra.(Джозеф.Лео.Манкевич).[1963.драма.мелодрама.биография.история.BDRip-AVC].[MVO.(BD.EUR)]+[Sub.Rus.Eng]x2.torrent без регистрации
Золото ЗОЛОТАЯ РАЗДАЧА! СКАЧАННОЕ НЕ ЗАСЧИТЫВАЕТСЯ! Золото
Дата: Зарегистрирован   [ Тип: внешний ] Как тут cкачать?
MAGNET ссылка
MAGNET ссылка


Скачать .torrent

12 KB

Статус: проверено DHT
Скачан: торрент - 27 раз, раздача полностью - 3 раз
Размер: 4,37 GB
Оценка:  - (Голосов: 0)
Поблагодарили: 1
Поделиться ссылкой на эту раздачу с друзьями:
В контактеFacebookОдноклассникиTwitterLivejournalМой МирLiveinternet
 

 
Показать сообщения:    


Вы не можете начинать темы
Вы не можете отвечать на сообщения
Вы не можете редактировать свои сообщения
Вы не можете удалять свои сообщения
Вы не можете голосовать в опросах
Вы не можете прикреплять файлы к сообщениям
Вы можете скачивать файлы