Loading...
Error

Скачать Битва в Арденнах / Wunderland (Стивен Люк) [2018, военный, WEBRip] [1080p] [MVO (GreenРай Studio)] торрент без регистрации

Статистика раздачи
Размер:  2,55 GB   |    Скачан:  117 раз
Сидов:  1  [  0 KB/s  ]  
 
 
 
Автор Сообщение

МихаНЕзатор

[] 

Информация о фильме
Год выхода: 2018
Название: Битва в Арденнах
Оригинальное название: Wunderland
Произведено: США
Категория: военный
Режиссер постановщик: Стивен Люк

В главных ролях: Том Беренджер, Уэйд Эверетт, Стивен Люк, Аарон Курто, Райан Дж. Гилмер, Эндрю Стекер, Джереми Майкл Перейра, Джозеф Сингер, Коди Флери, Кэйси Силл

О фильме: Рождество 1944 года, немцы предпринимают последнюю попытку оттеснить союзнические войска на западном фронте. Взвод лейтенанта Каппы получает приказ занять и удерживать важный перекресток, не уступить его врагу. Героям предстоит найти веру и силы, чтобы выдержать натиск немцев в бою, получившим название "Битва в Арденнах".

Релиз от:

Внимание, имеется видео и аудио реклама от спонсора показа

Файл
Качество: WEBRip 1080p
Видео данные: MKV, 1920x800 (2:40:1), 24.000 fps, 4000 Кбит/с
Аудио данные: AC3, 2 ch, 384 Кбит/с
Перевод: Любительский многоголосый (GreenРай Studio)
Продолжительность: 01:25:27
General
Unique ID : 248583724788677553641860620282389872937 (0xBB037BE28F638C7FA83B5382385C4129)
Complete name : D:ГРИНРАЙWunderland.2018.P.WEB-DL.1080p.mkv
Format : Matroska
Format version : Version 4 / Version 2
File size : 2.55 GiB
Duration : 1 h 25 min
Overall bit rate mode : Constant
Overall bit rate : 4 257 kb/s
Encoded date : UTC 2018-03-29 09:27:17
Writing application : mkvmerge v8.3.0 ('Over the Horizon') 64bit
Writing library : libebml v1.3.1 + libmatroska v1.4.2

Video
ID : 1
Format : AVC
Format/Info : Advanced Video Codec
Format profile : Main@L4
Format settings : CABAC / 3 Ref Frames
Format settings, CABAC : Yes
Format settings, RefFrames : 3 frames
Format settings, GOP : M=4, N=15
Codec ID : V_MPEG4/ISO/AVC
Duration : 1 h 25 min
Bit rate mode : Constant
Bit rate : 4 000 kb/s
Width : 1 920 pixels
Height : 800 pixels
Display aspect ratio : 2.40:1
Frame rate mode : Constant
Frame rate : 24.000 FPS
Standard : NTSC
Color space : YUV
Chroma subsampling : 4:2:0
Bit depth : 8 bits
Scan type : Progressive
Bits/(Pixel*Frame) : 0.109
Stream size : 2.32 GiB (91%)
Language : English
Default : Yes
Forced : No
Color range : Limited

Audio
ID : 2
Format : AC-3
Format/Info : Audio Coding 3
Codec ID : A_AC3
Duration : 1 h 25 min
Bit rate mode : Constant
Bit rate : 384 kb/s
Channel(s) : 2 channels
Channel positions : Front: L R
Sampling rate : 48.0 kHz
Frame rate : 31.250 FPS (1536 SPF)
Bit depth : 16 bits
Compression mode : Lossy
Stream size : 235 MiB (9%)
Service kind : Complete Main
Default : Yes
Forced : No



Скачать Битва.в.Арденнах.Wunderland.(Стивен.Люк).[2018.военный.WEBRip].[1080p].[MVO.(GreenРай.Studio)].torrent без регистрации
Золото ЗОЛОТАЯ РАЗДАЧА! СКАЧАННОЕ НЕ ЗАСЧИТЫВАЕТСЯ! Золото
Дата: Зарегистрирован   [ Тип: внутренний ] Как тут cкачать?
MAGNET ссылка
MAGNET ссылка


Скачать .torrent

14 KB

Статус: проверено DHT
Скачан: торрент - 117 раз, раздача полностью - 154 раз
Размер: 2,55 GB
Оценка:  - (Голосов: 0)
Поблагодарили: 3
Поделиться ссылкой на эту раздачу с друзьями:
В контактеFacebookОдноклассникиTwitterLivejournalМой МирLiveinternet
 

 
Показать сообщения:    


Вы не можете начинать темы
Вы не можете отвечать на сообщения
Вы не можете редактировать свои сообщения
Вы не можете удалять свои сообщения
Вы не можете голосовать в опросах
Вы не можете прикреплять файлы к сообщениям
Вы можете скачивать файлы