Loading...
Error

Скачать Доктор Котов (01-04 из 04) (Ашот Кещян) [2018, мелодрама,комедия, SATRip-AVC] торрент без регистрации

Статистика раздачи
Размер:  2,26 GB   |    Скачан:  106 раз

Полного источника не было: 1 день 9 часов

 
 
 
Автор Сообщение

сашок33

[] 

Доктор Котов





Год выпуска: 2018
Производство: Россия,Кинокомпания Гамма
Жанр:мелодрама,комедия
Продолжительность: 00:49:00
Субтитры: нет



Режиссёр: Ашот Кещян



В ролях: Иван Оганесян, Светлана Антонова, Дмитрий Мазуров, Виолетта Давыдовская, Любовь Зайцева, Илья Бледный, Нодар Джанелидзе, Сергей Пиоро, Виктория Лукина, Людмила Гаврилова, Андрей Капустин

Описание:
Свадьба Риты с Павлом отменяется из-за того, что её сестра Светлана попадает в аварию и оказывается в больнице. Чтобы не дать пропасть делу всей жизни Светланы, Рита принимает на себя руководство её ветеринарной клиникой. Рита, к своему удивлению, обнаруживает, что лучший специалист клиники – её заклятый враг и по совместительству давний возлюбленный Фёдор Котов. Не сумев найти общего языка спустя много лет после расставания, Рита и Фёдор начинают открытую войну по выживанию друг друга из клиники.







Качество: SATRip-AVC
Формат: MKV
Видео кодек: H.264
Аудио кодек: AC3
Видео: MPEG4 Video (H264), 720x400, 25fps,1500 Kbps,bit/pixel 0.208
Аудио: AC3 48000Hz, stereo, 192kbps,2 ch



Общее
Уникальный идентификатор : 173586078198585979742977877644053493139 (0x8297766C81081D0CAC521126AA52B593)
Полное имя : H:\Доктор Котов\01 серия_Доктор Котов_rip by_Aleksan55.mkv
Формат : Matroska
Версия формата : Version 2
Размер файла : 594 Мбайт
Продолжительность : 49 м. 0 с.
Общий поток : 1694 Кбит/сек
Дата кодирования : UTC 2018-03-31 14:28:54
Программа кодирования : mkvmerge v7.8.0 ('River Man') 32bit built on Apr 3 2015 12:11:22
Библиотека кодирования : libebml v1.3.1 + libmatroska v1.4.2

Видео
Идентификатор : 1
Формат : AVC
Формат/Информация : Advanced Video Codec
Профиль формата : High@L4.1
Параметр CABAC формата : Да
Параметр ReFrames формата : 14 кадров
Идентификатор кодека : V_MPEG4/ISO/AVC
Продолжительность : 49 м. 0 с.
Битрейт : 1500 Кбит/сек
Ширина : 720 пикселей
Высота : 400 пикселей
Соотношение сторон : 16:9
Режим частоты кадров : Постоянный
Частота кадров : 25,000 кадров/сек
Цветовое пространство : YUV
Субдискретизация насыщенности : 4:2:0
Битовая глубина : 8 бит
Тип развёртки : Прогрессивная
Бит/(Пиксели*Кадры) : 0.208
Размер потока : 515 Мбайт (87%)
Библиотека кодирования : x264 core 146 r2538 121396c
Настройки программы : cabac=1 / ref=14 / deblock=1:-2:-2 / analyse=0x3:0x133 / me=umh / subme=9 / psy=1 / psy_rd=1.00:0.15 / mixed_ref=0 / me_range=32 / chroma_me=1 / trellis=2 / 8x8dct=1 / cqm=0 / deadzone=21,11 / fast_pskip=1 / chroma_qp_offset=-3 / threads=3 / lookahead_threads=3 / sliced_threads=0 / nr=0 / decimate=0 / interlaced=0 / bluray_compat=0 / constrained_intra=0 / bframes=14 / b_pyramid=2 / b_adapt=1 / b_bias=0 / direct=3 / weightb=1 / open_gop=0 / weightp=2 / keyint=250 / keyint_min=25 / scenecut=40 / intra_refresh=0 / rc_lookahead=40 / rc=2pass / mbtree=1 / bitrate=1500 / ratetol=1.0 / qcomp=0.60 / qpmin=0 / qpmax=39 / qpstep=4 / cplxblur=20.0 / qblur=0.5 / ip_ratio=1.40 / aq=1:1.20
Default : Да
Forced : Нет
Цветовой диапазон : Limited
Основные цвета : BT.601 PAL
Характеристики трансфера : BT.470 System B, BT.470 System G
Коэффициенты матрицы : BT.601

Аудио
Идентификатор : 2
Формат : AC-3
Формат/Информация : Audio Coding 3
Расширение режима : CM (complete main)
Параметр Endianness формата : Big
Идентификатор кодека : A_AC3
Продолжительность : 49 м. 0 с.
Вид битрейта : Постоянный
Битрейт : 192 Кбит/сек
Каналы : 2 канала
Расположение каналов : Front: L R
Частота : 48,0 КГц
Частота кадров : 31,250 кадров/сек (1536 spf)
Битовая глубина : 16 бит
Метод сжатия : С потерями
Размер потока : 67,3 Мбайт (11%)
Default : Да
Forced : Нет






Скачать Доктор.Котов.(01-04.из.04).(Ашот.Кещян).[2018.мелодрама.комедия.SATRip-AVC].torrent без регистрации
Золото ЗОЛОТАЯ РАЗДАЧА! СКАЧАННОЕ НЕ ЗАСЧИТЫВАЕТСЯ! Золото
Дата: Зарегистрирован   [ Тип: внутренний ] Как тут cкачать?
MAGNET ссылка
MAGNET ссылка


Скачать .torrent

12 KB

Статус: * не проверено
Скачан: торрент - 106 раз, раздача полностью - 79 раз
Размер: 2,26 GB
Оценка:  - (Голосов: 0)
Поблагодарили: 2
Поделиться ссылкой на эту раздачу с друзьями:
В контактеFacebookОдноклассникиTwitterLivejournalМой МирLiveinternet
 

 
Показать сообщения:    


Вы не можете начинать темы
Вы не можете отвечать на сообщения
Вы не можете редактировать свои сообщения
Вы не можете удалять свои сообщения
Вы не можете голосовать в опросах
Вы не можете прикреплять файлы к сообщениям
Вы можете скачивать файлы