Loading...
Error

Скачать Девушка в тумане / La ragazza nella nebbia (Донато Карризи) [2017, Триллер, драма, криминал, BDRip][1080p] [Dub iTunes] [R.G. GoldenShara] торрент без регистрации

Статистика раздачи
Размер:  4,31 GB   |    Скачан:  153 раза
Сидов:  2  [  0 KB/s  ]  
 
 
 
Автор Сообщение

Magnetto83

[] 


Девушка в тумане / La ragazza nella nebbia


Год выпуска: 2017
Выпущено: Италия, Германия, Франция | Colorado Film Production
Жанр: Триллер, драма, криминал
Продолжительность: 02:08:18
Перевод: Профессиональный (полное дублирование) | iTunes |
Субтитры: Русские (Полные), Английские (Full)
Навигация по главам: Сохранены оригинальные главы как на Blu-ray

Режиссер: Донато Карризи

В ролях: Тони Сервилло, Жан Рено, Алессио Бони, Лоренцо Рикельми, Галатеа Ранци, Микела Ческон, Лукреция Гидоне, Даниэла Пьяцца, Якопо Ольмо Антинори, Марина Оккьонеро

Описание: Холодной зимней ночью психиатра Аугусто Флореса срочно вызывают на работу, чтобы обследовать попавшего в аварию инспектора Фогеля. Инспектор ничего не помнит, на месте аварии ничто не указывает на ее причину и на ее жертв, однако рубашка Фогеля в пятнах свежей крови, и эта кровь не его. В ходе беседы начинает восстанавливаться цепь невероятных событий, начавшихся месяц назад...



Возраст: 16+ (зрителям, достигшим 16 лет)
Рейтинг MPAA: PG-13 (детям до 13 лет просмотр нежелателен)

Качество: BDRip 1080p
Формат: MKV
Видео кодек: H.264
Аудио кодек: AC3
Видео: 1920x800 (2.40:1), 4424 Кбит/с, 24 fps
Аудио: Русский Dolby Digital 5.1 (384 Кбит/с)


x264 [info]: frame I:1215 Avg QP:14.84 size:140699
x264 [info]: frame P:36181 Avg QP:17.39 size: 49136
x264 [info]: frame B:147357 Avg QP:19.61 size: 15654
x264 [info]: consecutive B-frames: 1.6% 1.7% 6.9% 7.0% 9.2% 63.5% 5.5% 1.6% 3.0%
x264 [total]: encoded 184753 frames, 1.35 fps, 4422.32 kb/s



General
Complete name : I:\Кино\Девушка в тумане 2017 Dub Rus iTunes BDRip 1080p.mkv
Format : Matroska
Format version : Version 2
File size : 4.31 GiB
Duration : 2h 8mn
Overall bit rate : 4 808 Kbps
Movie name : Девушка в тумане 2017 Dub Rus BDRip 1080p By R.G. GoldenShara
Encoded date : UTC 2018-03-19 07:20:00
Writing application : mkvmerge v5.2.0 ('I can't explain') built on Dec 18 2011 18:12:03
Writing library : libebml v1.2.3 + libmatroska v1.3.0
Attachements : Cover

Video
ID : 1
Format : AVC
Format/Info : Advanced Video Codec
Format profile : High@L4.1
Format settings, CABAC : Yes
Format settings, ReFrames : 5 frames
Codec ID : V_MPEG4/ISO/AVC
Duration : 2h 8mn
Bit rate : 4 424 Kbps
Width : 1 920 pixels
Height : 800 pixels
Display aspect ratio : 2.40:1
Frame rate mode : Constant
Frame rate : 24.000 fps
Color space : YUV
Chroma subsampling : 4:2:0
Bit depth : 8 bits
Scan type : Progressive
Bits/(Pixel*Frame) : 0.120
Stream size : 3.88 GiB (90%)
Title : Девушка в тумане 2017 BDRip 1080p By magnetto 83
Writing library : x264 core 146 r2538 121396c
Encoding settings : cabac=1 / ref=5 / deblock=1:-1:-1 / analyse=0x3:0x113 / me=umh / subme=10 / psy=1 / psy_rd=1.00:0.00 / mixed_ref=1 / me_range=32 / chroma_me=1 / trellis=2 / 8x8dct=1 / cqm=0 / deadzone=21,11 / fast_pskip=0 / chroma_qp_offset=-2 / threads=3 / lookahead_threads=1 / sliced_threads=0 / nr=0 / decimate=1 / interlaced=0 / bluray_compat=0 / constrained_intra=0 / bframes=8 / b_pyramid=2 / b_adapt=2 / b_bias=0 / direct=3 / weightb=1 / open_gop=0 / weightp=2 / keyint=250 / keyint_min=23 / scenecut=40 / intra_refresh=0 / rc=2pass / mbtree=0 / bitrate=4424 / ratetol=1.0 / qcomp=0.60 / qpmin=0 / qpmax=69 / qpstep=4 / cplxblur=20.0 / qblur=0.5 / ip_ratio=1.40 / pb_ratio=1.30 / aq=2:1.00
Language : Italian
Default : Yes
Forced : No

Audio
ID : 2
Format : AC-3
Format/Info : Audio Coding 3
Mode extension : CM (complete main)
Format settings, Endianness : Big
Codec ID : A_AC3
Duration : 2h 8mn
Bit rate mode : Constant
Bit rate : 384 Kbps
Channel(s) : 6 channels
Channel positions : Front: L C R, Side: L R, LFE
Sampling rate : 48.0 KHz
Compression mode : Lossy
Stream size : 352 MiB (8%)
Title : DD 5.1 @ 384 Kbps - DUB | iTunes |
Language : Russian
Default : Yes
Forced : No

Text #1
ID : 3
Format : UTF-8
Codec ID : S_TEXT/UTF8
Codec ID/Info : UTF-8 Plain Text
Title : Полные
Language : Russian
Default : No
Forced : No

Text #2
ID : 4
Format : UTF-8
Codec ID : S_TEXT/UTF8
Codec ID/Info : UTF-8 Plain Text
Title : Full
Language : English
Default : No
Forced : No

Menu
00:00:00.000 : en:Chapter 01
00:06:17.875 : en:Chapter 02
00:15:48.041 : en:Chapter 03
00:22:44.500 : en:Chapter 04
00:31:22.083 : en:Chapter 05
00:39:51.750 : en:Chapter 06
00:47:44.416 : en:Chapter 07
00:54:36.416 : en:Chapter 08
01:01:11.750 : en:Chapter 09
01:11:32.083 : en:Chapter 10
01:18:15.791 : en:Chapter 11
01:27:31.708 : en:Chapter 12
01:38:13.875 : en:Chapter 13
01:47:45.541 : en:Chapter 14
01:57:28.083 : en:Chapter 15







Скачать Девушка.в.тумане.La.ragazza.nella.nebbia.(Донато.Карризи).[2017.Триллер.драма.криминал.BDRip][1080p].[Dub.iTunes].[R.G.GoldenShara].torrent без регистрации
Золото ЗОЛОТАЯ РАЗДАЧА! СКАЧАННОЕ НЕ ЗАСЧИТЫВАЕТСЯ! Золото
Дата: Зарегистрирован   [ Тип: внутренний ] Как тут cкачать?
MAGNET ссылка
MAGNET ссылка


Скачать .torrent

11 KB

Статус: Τ временная раздача
Скачан: торрент - 153 раз, раздача полностью - 118 раз
Размер: 4,31 GB
Оценка:  5 (Голосов: 6)
Поблагодарили: 17
Поделиться ссылкой на эту раздачу с друзьями:
В контактеFacebookОдноклассникиTwitterLivejournalМой МирLiveinternet
 

 

lexeich

[] 

встаньте пожалуйста на раздачу, дайте скачать...
 
Показать сообщения:    


Вы не можете начинать темы
Вы не можете отвечать на сообщения
Вы не можете редактировать свои сообщения
Вы не можете удалять свои сообщения
Вы не можете голосовать в опросах
Вы не можете прикреплять файлы к сообщениям
Вы можете скачивать файлы