Loading...
Error

Скачать За лесом / Beyond the Woods (Шон Брешнах) [2018, ужасы, DVDRip] [DVO (HiWay Grope)] торрент без регистрации

Статистика раздачи
Размер:  784 MB   |    Скачан:  125 раз
Сидов:  1  [  0 KB/s  ]  
 
 
 
Автор Сообщение

МихаНЕзатор

[] 

Информация о фильме
Название: За лесом
Оригинальное название: Beyond the Woods
Год выхода: 2018
Жанр: ужасы
Режиссер: Шон Брешнах

В ролях: Джон Райан Говард, Росс Мак Махон, Клер Лой, Ирен Келлехер, Марк Лоуренс, Рут Хейс, Шон МакДжилликадди, Алан Риордан и другие

О фильме: Встреча друзей заканчивается хаосом, когда возле их загородного дома появляется загадочная огненная воронка.



Релиз от: HiWay Grope

Страна: Ирландия
Продолжительность: 01:19:19
Перевод: Любительский (двухголосый закадровый) | HiWay Grope

Файл
Кодек: XviD
Качество: DVDRip
Видео: 720x400, 25.000 fps, ~1179 kbps, 0.16 bit/pixel
Звук:
Аудио rus: AC3, 48 kHz, 2 ch, 192 Kbps
Субтитры: отсутствуют

General
Complete name : E:Beyond.the.Woods.2018.DVDRip.HiWayGropeBeyond.the.Woods.2018.DVDRip.HiWayGrope.avi
Format : AVI
Format/Info : Audio Video Interleave
File size : 784 MiB
Duration : 1h 19mn
Overall bit rate : 1 381 Kbps
Writing application : VirtualDubMod 1.5.10.3 (build 2550/release)
Writing library : VirtualDubMod build 2550/release

Video
ID : 0
Format : MPEG-4 Visual
Format profile : Advanced Simple@L5
Format settings, BVOP : 1
Format settings, QPel : No
Format settings, GMC : No warppoints
Format settings, Matrix : Default (MPEG)
Codec ID : XVID
Codec ID/Hint : XviD
Duration : 1h 19mn
Bit rate : 1 180 Kbps
Width : 720 pixels
Height : 400 pixels
Display aspect ratio : 16:9
Frame rate : 25.000 fps
Color space : YUV
Chroma subsampling : 4:2:0
Bit depth : 8 bits
Scan type : Progressive
Compression mode : Lossy
Bits/(Pixel*Frame) : 0.164
Stream size : 669 MiB (85%)
Writing library : XviD 73

Audio
ID : 1
Format : AC-3
Format/Info : Audio Coding 3
Mode extension : CM (complete main)
Format settings, Endianness : Big
Codec ID : 2000
Duration : 1h 19mn
Bit rate mode : Constant
Bit rate : 192 Kbps
Channel(s) : 2 channels
Channel positions : Front: L R
Sampling rate : 48.0 KHz
Frame rate : 31.250 fps (1536 spf)
Compression mode : Lossy
Stream size : 109 MiB (14%)
Alignment : Split accross interleaves
Interleave, duration : 40 ms (1.00 video frame)
Interleave, preload duration : 500 ms



Скачать За.лесом.Beyond.the.Woods.(Шон.Брешнах).[2018.ужасы.DVDRip].[DVO.(HiWay.Grope)].torrent без регистрации
Золото ЗОЛОТАЯ РАЗДАЧА! СКАЧАННОЕ НЕ ЗАСЧИТЫВАЕТСЯ! Золото
Дата: Зарегистрирован   [ Тип: внутренний ] Как тут cкачать?
MAGNET ссылка
MAGNET ссылка


Скачать .torrent

16 KB

Статус: проверено DHT
Скачан: торрент - 125 раз, раздача полностью - 146 раз
Размер: 784 MB
Оценка:  4 (Голосов: 1)
Поблагодарили: 5
Поделиться ссылкой на эту раздачу с друзьями:
В контактеFacebookОдноклассникиTwitterLivejournalМой МирLiveinternet
 

 
Показать сообщения:    


Вы не можете начинать темы
Вы не можете отвечать на сообщения
Вы не можете редактировать свои сообщения
Вы не можете удалять свои сообщения
Вы не можете голосовать в опросах
Вы не можете прикреплять файлы к сообщениям
Вы можете скачивать файлы