Loading...
Error

Скачать Зеркало / Looking Glass (Тим Хантер) [2018, триллер, BDRip AVC] [MVO (HDrezka Studio)]+[Eng]+[Sub Eng] торрент без регистрации

Статистика раздачи
Размер:  2,17 GB   |    Скачан:  123 раза
Сидов:  17  [  0 KB/s  ]   Личеров:  2  [  0 KB/s  ]  
 
 
 
Автор Сообщение

МихаНЕзатор

[] 

Информация о фильме
Название: Зеркало
Оригинальное название: Looking Glass
Год выхода: 2018
Жанр: Триллер
Режиссер: Тим Хантер

В ролях:Николас Кейдж, Робин Танни, Марк Блукас, Эрни Лайвли, Жак Грэй, Конуэй, Билл Болендер, Джейсон К. Уиксом, Сила Агавале

О фильме: Рэй с женой купили уединенный мотель в пустыне в надежде начать жизнь с чистого листа. Но мирная и размеренная жизнь постепенно начинает трещать по швам, когда Рэй обнаруживает двойное зеркало, через которое можно увидеть всё, что происходит в одном из номеров. И когда в мотеле пропадает постоялица, то подозрение падает на владельцев.

Релиз от:

Silverok

Страна: Канада, США
Студия: Kirk Shaw Productions, Prettybird, Silver State Production Services
Продолжительность: 01:43:39
Перевод: Любительский многоголосый,закадровый

Файл
Кодек: h.264
Качество: BDRip AVC
Видео: MPEG-4 AVC, 2435 Кбит/с, 1024x576, 23,976 кадр/с
Звук:
Русский (AC3, 2 ch, 192 Кбит/с) / Любительский многоголосый (HDrezka Studio)
Английский (AC3, 6 ch, 384 Кбит/с)
Субтитры: Английские
General
Unique ID : 303793469005416946679869513401316761820 (0xE48C7E6F5B86045F072584EDF26960DC)
Complete name : D:uTorrentZerkalo.2018.BDRip.AVC.MediaClub.mkv
Format : Matroska
Format version : Version 4 / Version 2
File size : 2.17 GiB
Duration : 1 h 43 min
Overall bit rate : 3 003 kb/s
Encoded date : UTC 2018-04-01 09:59:10 / UTC 2018-03-31T00:42:42Z
Writing application : mkvmerge v19.0.0 ('Brave Captain') 64-bit
Writing library : libebml v1.3.5 + libmatroska v1.4.8 / Lavf57.7.2
Cover : Yes
Attachments : cover.jpg

Video
ID : 1
Format : AVC
Format/Info : Advanced Video Codec
Format profile : High@L4.1
Format settings : CABAC / 13 Ref Frames
Format settings, CABAC : Yes
Format settings, RefFrames : 13 frames
Codec ID : V_MPEG4/ISO/AVC
Duration : 1 h 43 min
Bit rate : 2 435 kb/s
Width : 1 024 pixels
Height : 576 pixels
Display aspect ratio : 16:9
Frame rate mode : Constant
Frame rate : 23.976 (24000/1001) FPS
Color space : YUV
Chroma subsampling : 4:2:0
Bit depth : 8 bits
Scan type : Progressive
Bits/(Pixel*Frame) : 0.172
Stream size : 1.71 GiB (79%)
Title : BDRip AVC by Silverok
Writing library : x264 core 148 r2708 86b7198
Encoding settings : cabac=1 / ref=13 / deblock=1:-3:-3 / analyse=0x3:0x113 / me=umh / subme=11 / psy=1 / psy_rd=1.00:0.00 / mixed_ref=1 / me_range=32 / chroma_me=1 / trellis=2 / 8x8dct=1 / cqm=0 / deadzone=21,11 / fast_pskip=0 / chroma_qp_offset=-2 / threads=12 / lookahead_threads=1 / sliced_threads=0 / nr=0 / decimate=0 / interlaced=0 / bluray_compat=0 / constrained_intra=0 / bframes=11 / b_pyramid=2 / b_adapt=1 / b_bias=0 / direct=1 / weightb=1 / open_gop=0 / weightp=2 / keyint=240 / keyint_min=24 / scenecut=40 / intra_refresh=0 / rc_lookahead=40 / rc=2pass / mbtree=0 / bitrate=2435 / ratetol=1.0 / qcomp=0.60 / qpmin=0 / qpmax=69 / qpstep=4 / cplxblur=20.0 / qblur=0.5 / vbv_maxrate=62500 / vbv_bufsize=78125 / nal_hrd=none / filler=0 / ip_ratio=1.40 / pb_ratio=1.30 / aq=1:1.00
Default : Yes
Forced : No
Color range : Limited
Color primaries : BT.709
Transfer characteristics : BT.709
Matrix coefficients : BT.709
Statistics Tags Issue : mkvmerge v19.0.0 ('Brave Captain') 64-bit 2018-04-01 09:59:10 / mkvmerge v19.0.0 ('Brave Captain') 64-bit 2018-04-01 09:59:10 / UTC 2018-03-31T00:42:42Z
FromStats_BitRate : 2425241
FromStats_Duration : 01:43:38.671000000
FromStats_FrameCount : 149099
FromStats_StreamSize : 1885222024

Audio #1
ID : 2
Format : AC-3
Format/Info : Audio Coding 3
Codec ID : A_AC3
Duration : 1 h 43 min
Bit rate mode : Constant
Bit rate : 192 kb/s
Channel(s) : 2 channels
Channel positions : Front: L R
Sampling rate : 48.0 kHz
Frame rate : 31.250 FPS (1536 SPF)
Bit depth : 16 bits
Compression mode : Lossy
Stream size : 142 MiB (6%)
Title : Любительский многоголосый (HDrezka Studio)
Language : Russian
Service kind : Complete Main
Default : Yes
Forced : No
Statistics Tags Issue : mkvmerge v19.0.0 ('Brave Captain') 64-bit 2018-04-01 09:59:10 / mkvmerge v19.0.0 ('Brave Captain') 64-bit 2018-04-01 09:59:10 / UTC 2018-03-31T00:42:42Z
FromStats_BitRate : 192000
FromStats_Duration : 01:43:39.104000000
FromStats_FrameCount : 194347
FromStats_StreamSize : 149258496

Audio #2
ID : 3
Format : AC-3
Format/Info : Audio Coding 3
Codec ID : A_AC3
Duration : 1 h 43 min
Bit rate mode : Constant
Bit rate : 384 kb/s
Channel(s) : 6 channels
Channel positions : Front: L C R, Side: L R, LFE
Sampling rate : 48.0 kHz
Frame rate : 31.250 FPS (1536 SPF)
Bit depth : 16 bits
Compression mode : Lossy
Delay relative to video : -5 ms
Stream size : 285 MiB (13%)
Language : English
Service kind : Complete Main
Default : No
Forced : No
Statistics Tags Issue : mkvmerge v19.0.0 ('Brave Captain') 64-bit 2018-04-01 09:59:10 / mkvmerge v19.0.0 ('Brave Captain') 64-bit 2018-04-01 09:59:10 / UTC 2018-03-31T00:42:42Z
FromStats_BitRate : 384000
FromStats_Duration : 01:43:38.656000000
FromStats_FrameCount : 194333
FromStats_StreamSize : 298495488

Text
ID : 4
Format : ASS
Codec ID : S_TEXT/ASS
Codec ID/Info : Advanced Sub Station Alpha
Compression mode : Lossless
Title : Full
Language : English
Default : No
Forced : No
Statistics Tags Issue : mkvmerge v19.0.0 ('Brave Captain') 64-bit 2018-04-01 09:59:10 / mkvmerge v19.0.0 ('Brave Captain') 64-bit 2018-04-01 09:59:10 / UTC 2018-03-31T00:42:42Z
FromStats_BitRate : 0
FromStats_Duration : 00:00:00.000000000
FromStats_FrameCount : 0
FromStats_StreamSize : 0

Menu
00:00:00.000 : :Chapter 1
00:04:18.842 : :Chapter 2
00:10:04.687 : :Chapter 3
00:17:02.772 : :Chapter 4
00:24:42.106 : :Chapter 5
00:32:08.885 : :Chapter 6
00:40:35.016 : :Chapter 7
00:45:33.522 : :Chapter 8
00:53:29.498 : :Chapter 9
01:01:07.205 : :Chapter 10
01:05:08.238 : :Chapter 11
01:10:39.026 : :Chapter 12
01:18:02.845 : :Chapter 13
01:27:03.969 : :Chapter 14
01:32:52.901 : :Chapter 15
01:40:58.094 : :Chapter 16



Скачать Зеркало.Looking.Glass.(Тим.Хантер).[2018.триллер.BDRip.AVC].[MVO.(HDrezka.Studio)]+[Eng]+[Sub.Eng].torrent без регистрации
Золото ЗОЛОТАЯ РАЗДАЧА! СКАЧАННОЕ НЕ ЗАСЧИТЫВАЕТСЯ! Золото
Дата: Зарегистрирован   [ Тип: внешний ] Как тут cкачать?
MAGNET ссылка
MAGNET ссылка


Скачать .torrent

12 KB

Статус: проверено DHT
Скачан: торрент - 123 раз, раздача полностью - 149 раз
Размер: 2,17 GB
Оценка:  1 (Голосов: 1)
Поблагодарили: 6
Поделиться ссылкой на эту раздачу с друзьями:
В контактеFacebookОдноклассникиTwitterLivejournalМой МирLiveinternet
 

 
Показать сообщения:    


Вы не можете начинать темы
Вы не можете отвечать на сообщения
Вы не можете редактировать свои сообщения
Вы не можете удалять свои сообщения
Вы не можете голосовать в опросах
Вы не можете прикреплять файлы к сообщениям
Вы можете скачивать файлы