Loading...
Error

Скачать Последний взмах флага / Last Flag Flying (Ричард Линклейтер) [2017, драма, комедия, военный, BDRip] [720p] [MVO (askier)]+[Eng]+[Sub Eng] торрент без регистрации

Статистика раздачи
Размер:  5,92 GB   |    Скачан:  38 раз
Сидов:  1  [  0 KB/s  ]  
 
 
 
Автор Сообщение

МихаНЕзатор

[] 

Информация о фильме
Название: Последний взмах флага
Оригинальное название: Last Flag Flying
Год выхода: 2017
Жанр: драма, комедия, военный
Режиссер: Ричард Линклейтер

В ролях: Брайан Крэнстон, Лоренс Фишбёрн, Стив Карелл, Дж. Куинтон Джонсон, Дианна Рид Фостер, Юл Васкес, Грэхэм Вульф, Джефф Монахэн, Донтес Джеймс

О фильме: Спустя 30 лет после службы во Вьетнаме бывший врач военно-морской пехоты Ларри «Док» Шеперд вновь встречается со старыми приятелями и сослуживцами, Салом Нилоном и Преподобным Ричардом Мюллером, чтобы похоронить своего сына — военно-морского пехотинца, убитого на войне в Ираке.



Страна: США
Студия: Amazon Studios
Продолжительность: 02:05:06
Перевод: Профессиональный (многоголосый, закадровый) Jaskier

Файл
Формат: MKV
Качество: BDRip 720p
Видео: MPEG-4 AVC, 5500 kb/s, 1280x690
Аудио: Russian: / English: AC3, 640 kb/s (6 ch)
Субтитры: английские (full)

Общее
Уникальный идентификатор : 247638427090042576644323440581865071907 (0xBA4D6D1C3029B381A7AA961F95936523)
Полное имя : F:ЗагрузкиLast.Flag.Flying.2017.BDRip.720p.JASKiER.mkv
Формат : Matroska
Версия формата : Version 2
Размер файла : 5,92 Гбайт
Продолжительность : 2 ч. 5 м.
Общий поток : 6775 Кбит/сек
Дата кодирования : UTC 2018-03-31 20:54:45
Программа кодирования : mkvmerge v7.8.0 ('River Man') 32bit built on Apr 3 2015 12:11:22
Библиотека кодирования : libebml v1.3.1 + libmatroska v1.4.2

Видео
Идентификатор : 1
Формат : AVC
Формат/Информация : Advanced Video Codec
Профиль формата : High@L4.1
Настройки формата : CABAC / 9 Ref Frames
Параметр CABAC формата : Да
Параметр RefFrames формата : 9 кадров
Идентификатор кодека : V_MPEG4/ISO/AVC
Продолжительность : 2 ч. 5 м.
Битрейт : 5500 Кбит/сек
Ширина : 1280 пикселей
Высота : 690 пикселей
Соотношение сторон : 1,85:1
Режим частоты кадров : Постоянный
Частота кадров : 23,976 (24000/1001) кадра/сек
Цветовое пространство : YUV
Субдискретизация насыщенности : 4:2:0
Битовая глубина : 8 бит
Тип развёртки : Прогрессивная
Бит/(Пиксели*Кадры) : 0.260
Размер потока : 4,68 Гбайт (79%)
Библиотека кодирования : x264 core 148 r2597 e86f3a1
Настройки программы : cabac=1 / ref=9 / deblock=1:0:0 / analyse=0x3:0x113 / me=umh / subme=10 / psy=1 / psy_rd=1.05:0.10 / mixed_ref=1 / me_range=32 / chroma_me=1 / trellis=2 / 8x8dct=1 / cqm=0 / deadzone=21,11 / fast_pskip=0 / chroma_qp_offset=-2 / threads=12 / lookahead_threads=1 / sliced_threads=0 / nr=0 / decimate=1 / interlaced=0 / bluray_compat=0 / constrained_intra=0 / bframes=6 / b_pyramid=2 / b_adapt=2 / b_bias=0 / direct=3 / weightb=1 / open_gop=0 / weightp=2 / keyint=250 / keyint_min=23 / scenecut=40 / intra_refresh=0 / rc=2pass / mbtree=0 / bitrate=5500 / ratetol=1.0 / qcomp=0.70 / qpmin=0 / qpmax=69 / qpstep=4 / cplxblur=20.0 / qblur=0.5 / ip_ratio=1.40 / pb_ratio=1.30 / aq=2:1.00
Язык : English
Default : Да
Forced : Нет

Аудио #1
Идентификатор : 2
Формат : AC-3
Формат/Информация : Audio Coding 3
Идентификатор кодека : A_AC3
Продолжительность : 2 ч. 5 м.
Вид битрейта : Постоянный
Битрейт : 640 Кбит/сек
Каналы : 6 каналов
Расположение каналов : Front: L C R, Side: L R, LFE
Частота : 48,0 КГц
Частота кадров : 31,250 кадров/сек (1536 SPF)
Битовая глубина : 16 бит
Метод сжатия : С потерями
Размер потока : 573 Мбайт (9%)
Заголовок : Jaskier
Язык : Russian
Default : Да
Forced : Нет

Аудио #2
Идентификатор : 3
Формат : AC-3
Формат/Информация : Audio Coding 3
Идентификатор кодека : A_AC3
Продолжительность : 2 ч. 5 м.
Вид битрейта : Постоянный
Битрейт : 640 Кбит/сек
Каналы : 6 каналов
Расположение каналов : Front: L C R, Side: L R, LFE
Частота : 48,0 КГц
Частота кадров : 31,250 кадров/сек (1536 SPF)
Битовая глубина : 16 бит
Метод сжатия : С потерями
Размер потока : 573 Мбайт (9%)
Заголовок : Original
Язык : English
Default : Нет
Forced : Нет

Текст
Идентификатор : 4
Формат : UTF-8
Идентификатор кодека : S_TEXT/UTF8
Идентификатор кодека/Информация : UTF-8 Plain Text
Заголовок : Full
Язык : English
Default : Нет
Forced : Нет

Меню
00:00:00.000 : en:00:00:00.000
00:07:58.103 : en:00:07:58.103
00:16:27.862 : en:00:16:27.862
00:22:32.017 : en:00:22:32.017
00:29:00.280 : en:00:29:00.280
00:36:31.314 : en:00:36:31.314
00:43:29.899 : en:00:43:29.899
00:53:16.443 : en:00:53:16.443
01:01:52.792 : en:01:01:52.792
01:14:01.979 : en:01:14:01.979
01:21:33.972 : en:01:21:33.972
01:28:13.747 : en:01:28:13.747
01:34:33.126 : en:01:34:33.126
01:40:56.884 : en:01:40:56.884
01:49:00.367 : en:01:49:00.367
01:58:10.083 : en:01:58:10.083



Скачать Последний.взмах.флага.Last.Flag.Flying.(Ричард.Линклейтер).[2017.драма.комедия.военный.BDRip].[720p].[MVO.(askier)]+[Eng]+[Sub.Eng].torrent без регистрации
Золото ЗОЛОТАЯ РАЗДАЧА! СКАЧАННОЕ НЕ ЗАСЧИТЫВАЕТСЯ! Золото
Дата: Зарегистрирован   [ Тип: внутренний ] Как тут cкачать?
MAGNET ссылка
MAGNET ссылка


Скачать .torrent

31 KB

Статус: проверено DHT
Скачан: торрент - 38 раз, раздача полностью - 29 раз
Размер: 5,92 GB
Оценка:  - (Голосов: 0)
Поблагодарили: 2
Поделиться ссылкой на эту раздачу с друзьями:
В контактеFacebookОдноклассникиTwitterLivejournalМой МирLiveinternet
 

 
Показать сообщения:    


Вы не можете начинать темы
Вы не можете отвечать на сообщения
Вы не можете редактировать свои сообщения
Вы не можете удалять свои сообщения
Вы не можете голосовать в опросах
Вы не можете прикреплять файлы к сообщениям
Вы можете скачивать файлы