Loading...
Error

Скачать Убийство на улице Данте (Михаил Ромм) [1956, драма, DVDRip] [Оригинал Rus] торрент без регистрации

Статистика раздачи
Размер:  1,09 GB   |    Скачан:  29 раз
Сидов:  3  [  0 KB/s  ]  
 
 
 
Автор Сообщение

Marsianka

[] 

Страна: СССР
Производство: Мосфильм

Жанр: драма
Год выпуска: 1956
Продолжительность: 01:38:16

Перевод: Не требуется
Cубтитры: нет
Оригинальная аудиодорожка: русский

Режиссер: Михаил Ромм

В ролях:
Евгения Козырева, Михаил Козаков, Николай Комиссаров, Максим Штраух, Ростислав Плятт, Владимир Муравьёв, Георгий Вицин, Александр Пелевин, Анатолий Кубацкий, Павел Шпрингфельд, Елена Понсова, Леонид Губанов, Геннадий Юдин, Олег Голубицкий, Валентин Гафт, Александр Шатов...
Полный список актёров

Описание:
В годы войны французская актриса Мадлен Тибо, активная участница Сопротивления, случайно узнала, что ее сын завербован фашистами. Все ее попытки пробудить в сыне патриотические чувства безуспешны. По вине Шарля погибают многие его соотечественники и родные. В смертельной опасности оказывается и сама Мадлен…

Источник: DVD5 R5
Качество видео: DVDRip
Формат видео: AVI

Видео: 688x512 (4:3), 25 fps, XviD ~ 1384 kbps avg, 0.157 bit/pixel
Аудио: 48 kHz, Dolby Digital AC3 2.0, 192 kbps

Раздача от:

Общее
Полное имя : Ubiystvo.na.ulice.Dante.1956.DVDRip_[New-team]_by_AVP_Studio.avi
Формат : AVI
Формат/Информация : Audio Video Interleave
Размер файла : 1,09 Гбайт
Продолжительность : 1 ч. 38 м.
Общий поток : 1586 Кбит/сек
Программа кодирования : VirtualDubMod 1.5.10.3 | www.virtualdub-fr.org || (build 2550/release)
Библиотека кодирования : VirtualDubMod build 2550/release

Видео
Идентификатор : 0
Формат : MPEG-4 Visual
Профиль формата : Advanced Simple@L5
Параметр BVOP формата : 1
Параметр QPel формата : Нет
Параметр GMC формата : Без точки перехода
Параметр матрицы формата : Выборочная
Идентификатор кодека : XVID
Идентификатор кодека/Подсказка : XviD
Продолжительность : 1 ч. 38 м.
Битрейт : 1384 Кбит/сек
Ширина : 688 пикселей
Высота : 512 пикселей
Соотношение сторон : 4:3
Частота кадров : 25,000 кадров/сек
Цветовое пространство : YUV
Субдискретизация насыщенности : 4:2:0
Битовая глубина : 8 бит
Тип развёртки : Прогрессивная
Метод сжатия : С потерями
Бит/(Пиксели*Кадры) : 0.157
Размер потока : 973 Мбайт (87%)
Библиотека кодирования : XviD 73

Аудио
Идентификатор : 1
Формат : AC-3
Формат/Информация : Audio Coding 3
Расширение режима : CM (complete main)
Параметр Endianness формата : Big
Идентификатор кодека : 2000
Продолжительность : 1 ч. 38 м.
Вид битрейта : Постоянный
Битрейт : 192 Кбит/сек
Каналы : 2 канала
Расположение каналов : Front: L R
Частота : 48,0 КГц
Частота кадров : 31,250 кадров/сек (1536 spf)
Битовая глубина : 16 бит
Метод сжатия : С потерями
Размер потока : 135 Мбайт (12%)
Выравнивание : Разделение по промежуткам
Продолжительность промежутка : 40 мс. (1,00 видеокадр)
Время предзагрузки промежутка : 500 мс



Скачать Убийство.на.улице.Данте.(Михаил.Ромм).[1956.драма.DVDRip].[Оригинал.Rus].torrent без регистрации
Золото ЗОЛОТАЯ РАЗДАЧА! СКАЧАННОЕ НЕ ЗАСЧИТЫВАЕТСЯ! Золото
Дата: Зарегистрирован   [ Тип: внешний ] Как тут cкачать?
MAGNET ссылка
MAGNET ссылка


Скачать .torrent

12 KB

Статус: проверено DHT
Скачан: торрент - 29 раз, раздача полностью - 10 раз
Размер: 1,09 GB
Оценка:  - (Голосов: 0)
Поблагодарили: 1
Поделиться ссылкой на эту раздачу с друзьями:
В контактеFacebookОдноклассникиTwitterLivejournalМой МирLiveinternet
 

 
Показать сообщения:    


Вы не можете начинать темы
Вы не можете отвечать на сообщения
Вы не можете редактировать свои сообщения
Вы не можете удалять свои сообщения
Вы не можете голосовать в опросах
Вы не можете прикреплять файлы к сообщениям
Вы можете скачивать файлы