Loading...
Error

Скачать Я сражаюсь с великанами / I Kill Giants (Андерс Вальтер Хансен) [2017, фэнтези, триллер, драма, WEB-DL] [1080p] [MVO (HDrezka Studio)] торрент без регистрации

Статистика раздачи
Размер:  3,77 GB   |    Скачан:  177 раз
Сидов:  2  [  0 KB/s  ]  
 
 
 
Автор Сообщение

МихаНЕзатор

[] 

Информация о фильме
Название: Я сражаюсь с великанами
Оригинальное название: I Kill Giants
Год выхода: 2017
Жанр: фэнтези, триллер, драма
Режиссер: Андерс Вальтер Хансен

В ролях: Зои Салдана, Имоджен Путс, Дженнифер Эль, Ноэль Кларк, Мэдисон Вульф, Рори Джексон, Сиара О Каллаган, Сидни Вэйд, Эйдин Уайлд, Аманда Стюарт

Описание: Барбара Торсон — особенная, ее уникальный талант — это возможность видеть мир великанов. И этот мир угрожает людям. Барбаре никто не верит, но она единственная, кто может спасти человечество от исчезновения. Она объявляет великанам войну и готовится к главному сражению в своей жизни.



Выпущено: Бельгия, Великобритания, США, 1492 Pictures, Adonis Production
Продолжительность: 01:46:30
Перевод: Любительский многоголосый [HDrezka Studio]

Формат: MKV
Качество: WEB-DL 1080p
Видео: MPEG-4 AVC, 4395 Кбит/с, 1912x800
Аудио: Русский (AC3, 2 ch, 192 Кбит/с), английский (AC3, 6 ch, 384 Кбит/с)
Аудио: Русские, английские
General
Unique ID : 235100460700079244801641732944887980270 (0xB0DEB3A3EE8E8F2EA83B25CF9C1AA0EE)
Complete name : I.Kill.Giants.2018.P.1080p.WEB-DL.Rustorrents.mkv
Format : Matroska
Format version : Version 2
File size : 3.77 GiB
Duration : 1h 46mn
Overall bit rate : 5 072 Kbps
Encoded date : UTC 2018-04-02 04:12:56
Writing application : mkvmerge v7.8.0 ('River Man') 32bit built on Apr 3 2015 12:11:22
Writing library : libebml v1.3.1 + libmatroska v1.4.2

Video
ID : 1
Format : AVC
Format/Info : Advanced Video Codec
Format profile : High@L4.0
Format settings, CABAC : Yes
Format settings, ReFrames : 5 frames
Codec ID : V_MPEG4/ISO/AVC
Duration : 1h 46mn
Bit rate : 4 395 Kbps
Width : 1 912 pixels
Height : 800 pixels
Display aspect ratio : 2.40:1
Frame rate mode : Constant
Frame rate : 23.976 fps
Color space : YUV
Chroma subsampling : 4:2:0
Bit depth : 8 bits
Scan type : Progressive
Bits/(Pixel*Frame) : 0.120
Stream size : 3.27 GiB (87%)
Language : English
Default : Yes
Forced : No
Color primaries : BT.709
Transfer characteristics : BT.709
Matrix coefficients : BT.709

Audio #1
ID : 2
Format : AC-3
Format/Info : Audio Coding 3
Mode extension : CM (complete main)
Format settings, Endianness : Big
Codec ID : A_AC3
Duration : 1h 46mn
Bit rate mode : Constant
Bit rate : 192 Kbps
Channel(s) : 2 channels
Channel positions : Front: L R
Sampling rate : 48.0 KHz
Bit depth : 16 bits
Compression mode : Lossy
Stream size : 146 MiB (4%)
Title : HDrezka
Language : Russian
Default : Yes
Forced : Yes

Audio #2
ID : 3
Format : AC-3
Format/Info : Audio Coding 3
Mode extension : CM (complete main)
Format settings, Endianness : Big
Codec ID : A_AC3
Duration : 1h 46mn
Bit rate mode : Constant
Bit rate : 384 Kbps
Channel(s) : 6 channels
Channel positions : Front: L C R, Side: L R, LFE
Sampling rate : 48.0 KHz
Bit depth : 16 bits
Compression mode : Lossy
Stream size : 293 MiB (8%)
Language : English
Default : No
Forced : No

Text #1
ID : 4
Format : UTF-8
Codec ID : S_TEXT/UTF8
Codec ID/Info : UTF-8 Plain Text
Language : Russian
Default : No
Forced : No

Text #2
ID : 5
Format : UTF-8
Codec ID : S_TEXT/UTF8
Codec ID/Info : UTF-8 Plain Text
Language : English
Default : No
Forced : No

Menu
00:00:00.000 : en:00:00:00
00:09:26.232 : en:00:09:26
00:19:25.623 : en:00:19:25
00:30:54.061 : en:00:30:54
00:42:20.956 : en:00:42:20
00:53:39.717 : en:00:53:39
01:04:09.722 : en:01:04:09
01:14:56.951 : en:01:14:56
01:27:10.809 : en:01:27:10
01:38:03.168 : en:01:38:03



Скачать Я.сражаюсь.с.великанами.I.Kill.Giants.(Андерс.Вальтер.Хансен).[2017.фэнтези.триллер.драма.WEB-DL].[1080p].[MVO.(HDrezka.Studio)].torrent без регистрации
Золото ЗОЛОТАЯ РАЗДАЧА! СКАЧАННОЕ НЕ ЗАСЧИТЫВАЕТСЯ! Золото
Дата: Зарегистрирован   [ Тип: внутренний ] Как тут cкачать?
MAGNET ссылка
MAGNET ссылка


Скачать .torrent

20 KB

Статус: проверено DHT
Скачан: торрент - 177 раз, раздача полностью - 301 раз
Размер: 3,77 GB
Оценка:  5 (Голосов: 2)
Поблагодарили: 6
Поделиться ссылкой на эту раздачу с друзьями:
В контактеFacebookОдноклассникиTwitterLivejournalМой МирLiveinternet
 

 
Показать сообщения:    


Вы не можете начинать темы
Вы не можете отвечать на сообщения
Вы не можете редактировать свои сообщения
Вы не можете удалять свои сообщения
Вы не можете голосовать в опросах
Вы не можете прикреплять файлы к сообщениям
Вы можете скачивать файлы