Loading...
Error

Скачать Восстание / Revolt (Джо Миэйл) [2017, фантастика, боевик, приключения, BDRemux] [1080p] [AVO (С. Визгунов)] торрент без регистрации

Статистика раздачи
Размер:  21,68 GB   |    Скачан:  76 раз
Сидов:  1  [  0 KB/s  ]  
 
 
 
Автор Сообщение

МихаНЕзатор

[] 

Информация о фильме
Название: Восстание
Оригинальное название: Revolt
Год выхода: 2017
Жанр: фантастика, боевик, приключения
Режиссер: Джо Миэйл

В ролях: Ли Пейс, Беренис Марло, Эми Луиз Уилсон, Алан Сантини, Том Фэйрфут, Кеннет Фок, Эдвин Джей, Карл Роддам

О фильме: Американский спецназовец был в Африке, когда Землю атаковали высокотехнологичные пришельцы. Столкнувшись с захватчиками, наш герой потерял сознание, а когда очнулся запертым в заброшенном полицейском участке, то понял, что лишился ещё и памяти. В соседней камере обнаружилась врач местной больницы Надя, а огромные наэлектризованные инопланетные роботы-убийцы — не самое страшное, с чем придётся столкнуться двум белым людям в Африке.



Страна: Великобритания, ЮАР
Студия: 42, MacDuff, POW Movie, Tea Shop & Film Company
Продолжительность: 01:27:16
Перевод: Авторский

Файл
Кодек: MPEG-4 AVC
Качество: BDRemux 1080p
Видео: 26500 Кбит/с, 1920x1080, 23.976 кадр/с

Аудио 1:Русский DTS-HD , 5.1 / 48 kHz / 4248 kbps - Авторский (Сергей Визгунов)
Аудио 2:Английский DTS-HD , 5.1 / 48 kHz / 4770 kbps - Оригинал
Субтитры: нет

Общее
Уникальный идентификатор : 238397930868446952694945205132611802990 (0xB359C578C3604B93AC77BECAB34BD76E)
Полное имя : D:\Downloads\Revolt.2017.1080p.Remux-films.club.mkv
Формат : Matroska
Версия формата : Version 4 / Version 2
Размер файла : 21,7 Гбайт
Продолжительность : 1 ч. 27 м.
Режим общего битрейта : Переменный
Общий поток : 35,6 Мбит/сек
Название фильма : Revolt.2017.1080p.BluRay.REMUX.AVC.DTS-HD.MA.5.1-FGT
Дата кодирования : UTC 2018-01-14 07:59:17
Программа кодирования : mkvmerge v9.7.1 ('Pandemonium') 32bit
Библиотека кодирования : libebml v1.3.4 + libmatroska v1.4.5
Обложка : Yes
Attachments : cover_land.jpg / small_cover.jpg / small_cover_land.jpg / cover.jpg

Видео
Идентификатор : 1
Формат : AVC
Формат/Информация : Advanced Video Codec
Профиль формата : High@L4.1
Настройки формата : CABAC / 4 Ref Frames
Параметр CABAC формата : Да
Параметр RefFrames формата : 4 кадра
Идентификатор кодека : V_MPEG4/ISO/AVC
Продолжительность : 1 ч. 27 м.
Вид битрейта : Переменный
Битрейт : 26,5 Мбит/сек
Максимальный битрейт : 38,0 Мбит/сек
Ширина : 1920 пикселей
Высота : 1080 пикселей
Соотношение сторон : 16:9
Режим частоты кадров : Постоянный
Частота кадров : 23,976 (24000/1001) кадра/сек
Цветовое пространство : YUV
Субдискретизация насыщенности : 4:2:0
Битовая глубина : 8 бит
Тип развёртки : Прогрессивная
Бит/(Пиксели*Кадры) : 0.534
Размер потока : 16,2 Гбайт (75%)
Заголовок : Revolt.2017.1080p.BluRay.REMUX.AVC.DTS-HD.MA.5.1-FGT
Язык : English
Default : Нет
Forced : Нет

Аудио #1
Идентификатор : 2
Формат : DTS
Формат/Информация : Digital Theater Systems
Профиль формата : MA / Core
Идентификатор кодека : A_DTS
Продолжительность : 1 ч. 27 м.
Вид битрейта : Переменный / Постоянный
Битрейт : 4248 Кбит/сек / 1509 Кбит/сек
Каналы : 6 каналов
Расположение каналов : Front: L C R, Side: L R, LFE
Частота : 48,0 КГц
Частота кадров : 93,750 кадра/сек (512 SPF)
Битовая глубина : 24 бит
Метод сжатия : Без потерь / Lossy
Размер потока : 2,59 Гбайт (12%)
Заголовок : Визгунов
Язык : Russian
Default : Да
Forced : Нет

Аудио #2
Идентификатор : 3
Формат : DTS
Формат/Информация : Digital Theater Systems
Профиль формата : MA / Core
Идентификатор кодека : A_DTS
Продолжительность : 1 ч. 27 м.
Вид битрейта : Переменный / Постоянный
Битрейт : 4770 Кбит/сек / 1509 Кбит/сек
Каналы : 6 каналов
Расположение каналов : Front: L C R, Side: L R, LFE
Частота : 48,0 КГц
Частота кадров : 93,750 кадра/сек (512 SPF)
Битовая глубина : 24 бит
Метод сжатия : Без потерь / Lossy
Размер потока : 2,91 Гбайт (13%)
Заголовок : Revolt.2017.1080p.BluRay.REMUX.AVC.DTS-HD.MA.5.1-FGT
Язык : English
Default : Нет
Forced : Нет

Меню
00:00:00.000 : en:Chapter 01
00:11:27.728 : en:Chapter 02
00:17:25.919 : en:Chapter 03
00:23:08.845 : en:Chapter 04
00:28:13.316 : en:Chapter 05
00:35:12.693 : en:Chapter 06
00:43:15.676 : en:Chapter 07
00:52:20.679 : en:Chapter 08
00:59:06.000 : en:Chapter 09
01:06:07.171 : en:Chapter 10
01:14:04.356 : en:Chapter 11
01:22:54.594 : en:Chapter 12
01:27:14.896 : en:Chapter 13



Скачать Восстание.Revolt.(Джо.Миэйл).[2017.фантастика.боевик.приключения.BDRemux].[1080p].[AVO.(С.Визгунов)].torrent без регистрации
Золото ЗОЛОТАЯ РАЗДАЧА! СКАЧАННОЕ НЕ ЗАСЧИТЫВАЕТСЯ! Золото
Дата: Зарегистрирован   [ Тип: внутренний ] Как тут cкачать?
MAGNET ссылка
MAGNET ссылка


Скачать .torrent

55 KB

Статус: проверено DHT
Скачан: торрент - 76 раз, раздача полностью - 87 раз
Размер: 21,68 GB
Оценка:  5 (Голосов: 2)
Поблагодарили: 4
Поделиться ссылкой на эту раздачу с друзьями:
В контактеFacebookОдноклассникиTwitterLivejournalМой МирLiveinternet
 

 
Показать сообщения:    


Вы не можете начинать темы
Вы не можете отвечать на сообщения
Вы не можете редактировать свои сообщения
Вы не можете удалять свои сообщения
Вы не можете голосовать в опросах
Вы не можете прикреплять файлы к сообщениям
Вы можете скачивать файлы