Loading...
Error

Скачать Kingsman: Золотое кольцо / Kingsman: The Golden Circle (Мэттью Вон) [2017, боевик, комедия, приключения, BDRemux] [1080p] [Dub Rus, Ukr (лицензия)]+3x[AVO]+[Eng]+[Sub Rus, Eng] торрент без регистрации

Статистика раздачи
Размер:  21,33 GB   |    Скачан:  69 раз
Сидов:  1  [  0 KB/s  ]  
 
 
 
Автор Сообщение

МихаНЕзатор

[] 

Название: Kingsman: Золотое кольцо
Оригинальное название: Kingsman: The Golden Circle
Год выхода: 2017
Жанр: Боевик, комедия, приключения
Режиссер: Мэттью Вон

В ролях: Тэрон Эджертон, Колин Фёрт, Марк Стронг, Джулианна Мур, Холли Берри, Педро Паскаль, Ченнинг Татум, Джефф Бриджес, Эдвард Холкрофт, Ханна Альстрём

О фильме: Когда штаб-квартиры секретной службы Kingsman уничтожены, и весь мир оказался в заложниках у неизвестных, британские суперагенты обнаруживают, что в один день вместе с их организацией была еще создана американская разведка — Statesman. Теперь эти две элитные спецслужбы должны объединиться и бросить вызов общему безжалостному врагу, чтобы спасти мир, то есть заняться тем, что для Эггси становится обычным делом.



Страна: США, Великобритания
Студия: 20th Century Fox
Продолжительность: 02:21:02
Перевод: профессиональный (дублированный), авторский (одноголосый)
Субтитры: русские (forced, full), украинские (forced, full), английские (full)

Формат: MKV
Качество: BDRip 1080p [DON]
Видео: MPEG-4 AVC Video, 14.0 Mbps, 1920x804, 23.976 fps
Звук:
#1. Russian: DTS Audio, 5.1, 48 kHz, 768 kbps - Дубляж (Blu-Ray EUR)
#2. Russian: DTS Audio, 5.1, 48 kHz, 1536 kbps - Авторский (Михаил Чадов)
#3. Russian: DTS Audio, 5.1, 48 kHz, 1536 kbps - Авторский (Юрий Живов)
#4. Russian: DTS Audio, 5.1, 48 kHz, 1536 kbps - Авторский (Юрий Сербин)
#5. Ukrainian: Dolby Digital, 5.1, 48 kHz, 448 kbps - Дубляж (Blu-Ray EUR)
#6. English: DTS Audio, 5.1, 48 kHz, 1536 kbps - Оригинал (Английский)
Format : Matroska
Format version : Version 2
File size : 21.3 GiB
Duration : 2 h 21 min
Overall bit rate : 21.7 Mb/s
Movie name : Kingsman: The Golden Circle (2017) BDRip 1080p [DON]
Encoded date : UTC 2018-04-02 19:01:34
Writing application : mkvmerge v4.9.1 ('Ich will') сборка от Jul 11 2011 23:53:15
Writing library : libebml v1.2.1 + libmatroska v1.1.1

Video
ID : 1
Format : AVC
Format/Info : Advanced Video Codec
Format profile : High@L4.1
Format settings, CABAC : Yes
Format settings, RefFrames : 5 frames
Codec ID : V_MPEG4/ISO/AVC
Duration : 2 h 21 min
Bit rate : 14.0 Mb/s
Width : 1 920 pixels
Height : 804 pixels
Display aspect ratio : 2.40:1
Frame rate mode : Constant
Frame rate : 23.976 (24000/1001) FPS
Color space : YUV
Chroma subsampling : 4:2:0
Bit depth : 8 bits
Scan type : Progressive
Bits/(Pixel*Frame) : 0.378
Stream size : 13.8 GiB (65%)
Title : Kingsman: Золотое кольцо
Writing library : x264 core 152 r2851+58 429492e t_mod_Custom [8-bit@all X86_64]
Encoding settings : cabac=1 / ref=5 / deblock=1:-3:-3 / analyse=0x3:0x133 / me=tesa / subme=11 / psy=1 / fade_compensate=0.00 / psy_rd=1.00:0.00 / mixed_ref=1 / me_range=24 / chroma_me=1 / trellis=2 / 8x8dct=1 / cqm=0 / deadzone=21,11 / fast_pskip=0 / chroma_qp_offset=-2 / threads=12 / lookahead_threads=2 / sliced_threads=0 / nr=0 / decimate=0 / interlaced=0 / bluray_compat=0 / constrained_intra=0 / fgo=0 / bframes=9 / b_pyramid=2 / b_adapt=2 / b_bias=0 / direct=3 / weightb=1 / open_gop=0 / weightp=2 / keyint=250 / keyint_min=23 / scenecut=40 / intra_refresh=0 / rc_lookahead=60 / rc=crf / mbtree=0 / crf=15.7000 / qcomp=0.65 / qpmin=0:0:0 / qpmax=69:69:69 / qpstep=4 / vbv_maxrate=62500 / vbv_bufsize=78125 / crf_max=0.0 / nal_hrd=none / filler=0 / ip_ratio=1.30 / pb_ratio=1.20 / aq=3:0.80 / aq-sensitivity=10.00 / aq-factor=1.00:1.00:1.00 / aq2=0 / aq3=0 / zones=1879,5914,crf=15.2/5915,5974,crf=12.7/5975,8530,crf=15.2/8644,10551,crf=15.2/10664,11651,crf=15.2/11652,11799,crf=12.7/11883,12008,crf=13.7/12009,13118,crf=14.7/32366,32479,crf=15.2/32480,35272,crf=15.5/35536,38599,crf=15.5/40900,43737,crf=15.2/62413,62477,crf=11.7/62477,62932,crf=15.2/62933,63017,crf=14.7/63188,63347,crf=14.7/63387,64129,crf=15.2/64318,64377,crf=15.2/65190,68806,crf=15.5/70937,71023,crf=13.7/71024,71102,crf=15.2/82998,83590,crf=15.2/83591,84107,crf=15.5/84349,84466,crf=13.7/84596,84683,crf=13.7/84684,86089,crf=15.5/86090,86121,crf=12.7/86122,88042,crf=15.5/88043,88722,crf=10/89091,90303,crf=15.5/94031,94163,crf=13.7/95503,95565,crf=13.7/124522,124566,crf=13.7/124824,124891,crf=11/124981,125007,crf=10/129972,130041,crf=12.7/132189,132221,crf=11.7/132322,132358,crf=12.7/132472,132521,crf=13.7/132818,132856,crf=11.7/132886,132938,crf=12.7/133201,133213,crf=12.7/137069,137123,crf=13.7/137952,137995,crf=13.7/141281,141329,crf=12.7/141848,141920,crf=12.7/142666,142731,crf=12.7/142999,143054,crf=12.7/145510,145647,crf=13.7/160895,160965,crf=15.2/161311,161388,crf=14.7/161551,161650,crf=14.7/161987,162027,crf=13.7/162037,162066,crf=13.7/162428,162455,crf=12.7/162456,162548,crf=14.7/164168,164185,crf=12.7/164245,164285,crf=11.7/165558,165595,crf=12.7/167594,167630,crf=13.7/178026,178103,crf=11/193705,193720,crf=12.7
Language : English
Default : Yes
Forced : No
Color range : Limited
Matrix coefficients : BT.709

Audio #1
ID : 2
Format : DTS
Format/Info : Digital Theater Systems
Mode : 16
Format settings, Endianness : Big
Codec ID : A_DTS
Duration : 2 h 21 min
Bit rate mode : Constant
Bit rate : 768 kb/s
Channel(s) : 6 channels
Channel positions : Front: L C R, Side: L R, LFE
Sampling rate : 48.0 kHz
Frame rate : 93.750 FPS (512 SPF)
Bit depth : 24 bits
Compression mode : Lossy
Stream size : 775 MiB (4%)
Title : Дубляж
Language : Russian
Default : Yes
Forced : No

Audio #2
ID : 3
Format : DTS
Format/Info : Digital Theater Systems
Mode : 16
Format settings, Endianness : Big
Codec ID : A_DTS
Duration : 2 h 21 min
Bit rate mode : Constant
Bit rate : 1 509 kb/s
Channel(s) : 6 channels
Channel positions : Front: L C R, Side: L R, LFE
Sampling rate : 48.0 kHz
Frame rate : 93.750 FPS (512 SPF)
Bit depth : 24 bits
Compression mode : Lossy
Stream size : 1.49 GiB (7%)
Title : Чадов
Language : Russian
Default : No
Forced : No

Audio #3
ID : 4
Format : DTS
Format/Info : Digital Theater Systems
Mode : 16
Format settings, Endianness : Big
Codec ID : A_DTS
Duration : 2 h 21 min
Bit rate mode : Constant
Bit rate : 1 509 kb/s
Channel(s) : 6 channels
Channel positions : Front: L C R, Side: L R, LFE
Sampling rate : 48.0 kHz
Frame rate : 93.750 FPS (512 SPF)
Bit depth : 24 bits
Compression mode : Lossy
Stream size : 1.49 GiB (7%)
Title : Живов
Language : Russian
Default : No
Forced : No

Audio #4
ID : 5
Format : DTS
Format/Info : Digital Theater Systems
Mode : 16
Format settings, Endianness : Big
Codec ID : A_DTS
Duration : 2 h 21 min
Bit rate mode : Constant
Bit rate : 1 509 kb/s
Channel(s) : 6 channels
Channel positions : Front: L C R, Side: L R, LFE
Sampling rate : 48.0 kHz
Frame rate : 93.750 FPS (512 SPF)
Bit depth : 24 bits
Compression mode : Lossy
Stream size : 1.49 GiB (7%)
Title : Сербин
Language : Russian
Default : No
Forced : No

Audio #5
ID : 6
Format : AC-3
Format/Info : Audio Coding 3
Format settings, Endianness : Big
Codec ID : A_AC3
Duration : 2 h 21 min
Bit rate mode : Constant
Bit rate : 448 kb/s
Channel(s) : 6 channels
Channel positions : Front: L C R, Side: L R, LFE
Sampling rate : 48.0 kHz
Frame rate : 31.250 FPS (1536 SPF)
Bit depth : 16 bits
Compression mode : Lossy
Stream size : 452 MiB (2%)
Title : Дубляж
Language : Ukrainian
Service kind : Complete Main
Default : No
Forced : No

Audio #6
ID : 7
Format : DTS
Format/Info : Digital Theater Systems
Mode : 16
Format settings, Endianness : Big
Codec ID : A_DTS
Duration : 2 h 21 min
Bit rate mode : Constant
Bit rate : 1 509 kb/s
Channel(s) : 6 channels
Channel positions : Front: L C R, Side: L R, LFE
Sampling rate : 48.0 kHz
Frame rate : 93.750 FPS (512 SPF)
Bit depth : 24 bits
Compression mode : Lossy
Stream size : 1.49 GiB (7%)
Title : Оригинал
Language : English
Default : No
Forced : No

Text #1
ID : 8
Format : UTF-8
Codec ID : S_TEXT/UTF8
Codec ID/Info : UTF-8 Plain Text
Title : Forced
Language : Russian
Default : Yes
Forced : No

Text #2
ID : 9
Format : UTF-8
Codec ID : S_TEXT/UTF8
Codec ID/Info : UTF-8 Plain Text
Title : Full
Language : Russian
Default : No
Forced : No

Text #3
ID : 10
Format : UTF-8
Codec ID : S_TEXT/UTF8
Codec ID/Info : UTF-8 Plain Text
Title : Forced
Language : Ukrainian
Default : No
Forced : No

Text #4
ID : 11
Format : UTF-8
Codec ID : S_TEXT/UTF8
Codec ID/Info : UTF-8 Plain Text
Title : Full
Language : Ukrainian
Default : No
Forced : No

Text #5
ID : 12
Format : UTF-8
Codec ID : S_TEXT/UTF8
Codec ID/Info : UTF-8 Plain Text
Title : Full
Language : English
Default : No
Forced : No

Menu
00:00:00.000 : en:00:00:00.000
00:04:51.958 : en:00:04:51.958
00:09:39.454 : en:00:09:39.454
00:13:36.607 : en:00:13:36.607
00:18:54.300 : en:00:18:54.300
00:24:57.287 : en:00:24:57.287
00:28:43.347 : en:00:28:43.347
00:32:52.304 : en:00:32:52.304
00:39:18.731 : en:00:39:18.731
00:43:21.849 : en:00:43:21.849
00:48:26.570 : en:00:48:26.570
00:53:54.106 : en:00:53:54.106
00:58:31.258 : en:00:58:31.258
01:05:04.901 : en:01:05:04.901
01:09:52.522 : en:01:09:52.522
01:13:34.744 : en:01:13:34.744
01:19:41.860 : en:01:19:41.860
01:23:45.103 : en:01:23:45.103
01:28:55.288 : en:01:28:55.288
01:33:25.225 : en:01:33:25.225
01:40:14.759 : en:01:40:14.759
01:45:03.255 : en:01:45:03.255
01:49:38.489 : en:01:49:38.489
01:55:15.992 : en:01:55:15.992
02:01:40.835 : en:02:01:40.835
02:05:44.036 : en:02:05:44.036
02:12:36.407 : en:02:12:36.407
02:15:15.274 : en:02:15:15.274



Скачать Kingsman.Золотое.кольцо.Kingsman.The.Golden.Circle.(Мэттью.Вон).[2017.боевик.комедия.приключения.BDRemux].[1080p].[Dub.Rus.Ukr.(лицензия)]+3x[AVO]+[Eng]+[Sub.Rus.Eng].torrent без регистрации
Золото ЗОЛОТАЯ РАЗДАЧА! СКАЧАННОЕ НЕ ЗАСЧИТЫВАЕТСЯ! Золото
Дата: Зарегистрирован   [ Тип: внутренний ] Как тут cкачать?
MAGNET ссылка
MAGNET ссылка


Скачать .torrent

108 KB

Статус: проверено DHT
Скачан: торрент - 69 раз, раздача полностью - 73 раз
Размер: 21,33 GB
Оценка:  5 (Голосов: 1)
Поблагодарили: 3
Поделиться ссылкой на эту раздачу с друзьями:
В контактеFacebookОдноклассникиTwitterLivejournalМой МирLiveinternet
 

 
Показать сообщения:    


Вы не можете начинать темы
Вы не можете отвечать на сообщения
Вы не можете редактировать свои сообщения
Вы не можете удалять свои сообщения
Вы не можете голосовать в опросах
Вы не можете прикреплять файлы к сообщениям
Вы можете скачивать файлы