Loading...
Error

Скачать Атлантида / Cold Skin (Ксавье Жанс) [2017, Ужасы, фантастика, триллер, приключения, BDRip][1080p] [Dub iTunes] [R.G. GoldenShara] торрент без регистрации

Статистика раздачи
Размер:  4,17 GB   |    Скачан:  121 раз
Сидов:  2  [  0 KB/s  ]  
 
 
 
Автор Сообщение

Magnetto83

[] 


Атлантида / Cold Skin


Год выпуска: 2017
Выпущено: Испания, Франция | Ink Connection, The
Жанр: Ужасы, фантастика, триллер, приключения
Продолжительность: 01:46:19
Перевод: Профессиональный (полное дублирование) | iTunes |
Субтитры: Отсутствуют
Навигация по главам: Сохранены оригинальные главы как на Blu-ray

Слоган: «Открой тайну затерянной цивилизации»

Режиссер: Ксавье Жанс

В ролях: Рэй Стивенсон, Дэвид Оукс, Аура Гарридо, Уинслоу Иваки, Джон Бенфилд, Бен Темпле, Иван Гонсалес, Алехандро Род, Жюльен Блашке, Дамиан Монтесдеока

Описание: После длительного плавания молодой метеоролог Френд прибывает на затерянный в океане остров принять годичную вахту на метеостанции. На острове оказывается лишь суровый и немногословный смотритель маяка Грюнер. Френд довольно быстро понимает, что Грюнер что-то скрывает, старый метеоролог попал в какую-то передрягу, а остров кажется необитаемым только на первый взгляд.



Возраст: 16+ (зрителям, достигшим 16 лет)
Рейтинг MPAA: PG-13 (детям до 13 лет просмотр нежелателен)

Качество: BDRip 1080p
Формат: MKV
Видео кодек: H.264
Аудио кодек: AC3
Видео: 1920x804 (2.40:1), 5239 Кбит/с, 24 fps
Аудио: Русский Dolby Digital 5.1 (384 Кбит/с)


x264 [info]: frame I:993 Avg QP:15.99 size:129320
x264 [info]: frame P:35820 Avg QP:19.17 size: 51448
x264 [info]: frame B:116287 Avg QP:21.31 size: 18935
x264 [info]: consecutive B-frames: 3.4% 3.8% 9.7% 18.2% 11.8% 45.8% 3.5% 1.0% 2.8%
x264 [total]: encoded 153100 frames, 1.24 fps, 5233.47 kb/s



General
Complete name : G:\Видео\Мои Рипы 1080p\Кино-Хиты 2017\Атлантида 2017 Dub Rus iTunes BDRip 1080p.mkv
Format : Matroska
Format version : Version 4 / Version 2
File size : 4.17 GiB
Duration : 1h 46mn
Overall bit rate : 5 619 Kbps
Movie name : Атлантида 2017 Dub Rus BDRip 1080p By R.G. GoldenShara
Encoded date : UTC 2018-02-14 14:33:05
Writing application : mkvmerge v7.0.0 ('Where We Going') 64bit built on Jun 9 2014 15:16:27
Writing library : libebml v1.3.0 + libmatroska v1.4.1
Attachements : Cover
DURATION : 01:46:16.672000000
NUMBER_OF_FRAMES : 199271
NUMBER_OF_BYTES : 306080256
_STATISTICS_WRITING_APP : mkvmerge v7.0.0 ('Where We Going') 64bit built on Jun 9 2014 15:16:27
_STATISTICS_WRITING_DATE_UTC : 2018-02-14 14:33:05
_STATISTICS_TAGS : BPS DURATION NUMBER_OF_FRAMES NUMBER_OF_BYTES

Video
ID : 1
Format : AVC
Format/Info : Advanced Video Codec
Format profile : High@L4.1
Format settings, CABAC : Yes
Format settings, ReFrames : 5 frames
Codec ID : V_MPEG4/ISO/AVC
Duration : 1h 46mn
Bit rate : 5 239 Kbps
Width : 1 920 pixels
Height : 804 pixels
Display aspect ratio : 2.40:1
Frame rate mode : Constant
Frame rate : 24.000 fps
Color space : YUV
Chroma subsampling : 4:2:0
Bit depth : 8 bits
Scan type : Progressive
Bits/(Pixel*Frame) : 0.141
Stream size : 3.80 GiB (91%)
Title : Атлантида 2017 BDRip 1080p By Magnetto 83
Writing library : x264 core 146 r2538 121396c
Encoding settings : cabac=1 / ref=5 / deblock=1:-3:-3 / analyse=0x3:0x113 / me=umh / subme=11 / psy=1 / psy_rd=1.00:0.00 / mixed_ref=1 / me_range=32 / chroma_me=1 / trellis=2 / 8x8dct=1 / cqm=0 / deadzone=21,11 / fast_pskip=0 / chroma_qp_offset=-2 / threads=3 / lookahead_threads=1 / sliced_threads=0 / nr=0 / decimate=1 / interlaced=0 / bluray_compat=0 / constrained_intra=0 / bframes=8 / b_pyramid=2 / b_adapt=2 / b_bias=0 / direct=3 / weightb=1 / open_gop=0 / weightp=2 / keyint=250 / keyint_min=23 / scenecut=40 / intra_refresh=0 / rc=2pass / mbtree=0 / bitrate=5239 / ratetol=1.0 / qcomp=0.60 / qpmin=0 / qpmax=69 / qpstep=4 / cplxblur=20.0 / qblur=0.5 / ip_ratio=1.40 / pb_ratio=1.30 / aq=2:1.00
Language : French
Default : Yes
Forced : No

Audio
ID : 2
Format : AC-3
Format/Info : Audio Coding 3
Mode extension : CM (complete main)
Format settings, Endianness : Big
Codec ID : A_AC3
Duration : 1h 46mn
Bit rate mode : Constant
Bit rate : 384 Kbps
Channel(s) : 6 channels
Channel positions : Front: L C R, Side: L R, LFE
Sampling rate : 48.0 KHz
Compression mode : Lossy
Stream size : 292 MiB (7%)
Title : DD 5.1 @ 384 Kbps - Dub | iTunes |
Language : Russian
Default : Yes
Forced : No

Menu
00:00:00.000 : :00:00:00.000
00:13:28.416 : :00:13:28.333
00:25:56.041 : :00:25:55.917
00:39:05.666 : :00:39:05.542
00:52:51.916 : :00:52:51.792
01:06:24.916 : :01:06:24.833
01:19:25.041 : :01:19:24.917
01:32:34.291 : :01:32:34.167







Скачать Атлантида.Cold.Skin.(Ксавье.Жанс).[2017.Ужасы.фантастика.триллер.приключения.BDRip][1080p].[Dub.iTunes].[R.G.GoldenShara].torrent без регистрации
Золото ЗОЛОТАЯ РАЗДАЧА! СКАЧАННОЕ НЕ ЗАСЧИТЫВАЕТСЯ! Золото
Дата: Зарегистрирован   [ Тип: внутренний ] Как тут cкачать?
MAGNET ссылка
MAGNET ссылка


Скачать .torrent

11 KB

Статус: Τ временная раздача
Скачан: торрент - 121 раз, раздача полностью - 76 раз
Размер: 4,17 GB
Оценка:  4,9 (Голосов: 8)
Поблагодарили: 19
Поделиться ссылкой на эту раздачу с друзьями:
В контактеFacebookОдноклассникиTwitterLivejournalМой МирLiveinternet
 

 
Показать сообщения:    


Вы не можете начинать темы
Вы не можете отвечать на сообщения
Вы не можете редактировать свои сообщения
Вы не можете удалять свои сообщения
Вы не можете голосовать в опросах
Вы не можете прикреплять файлы к сообщениям
Вы можете скачивать файлы