Loading...
Error

Скачать Тор: Рагнарёк / Thor: Ragnarok (Тайка Вайтити / Taika Waititi) [2017, фантастика, боевик, комедия, приключения, BDRip-AVC] [IMAX Edition] [Dub] + [AVO] (Ю. Живов) + Sub Rus, Eng + Original Eng торрент без регистрации

Статистика раздачи
Размер:  4,24 GB   |    Скачан:  68 раз
Сидов:  2  [  0 KB/s  ]  
 
 
 
Автор Сообщение

leon030982

[] 

Тор: Рагнарёк / Thor: Ragnarok

«No Hammer. No Problem»IMAX Edition


Год выпуска: 2017
Страна: США
Жанр: фантастика, фэнтези, боевик, комедия, приключения
Продолжительность: 02:10:30
Перевод 1: Профессиональный (дублированный) Blu-Ray. EUR
Перевод 2: Авторский (одноголосый закадровый) Ю. Живов
Субтитры: Русские (Форсированные, Полные, SDH), Englishl (Full, SDH, SDH-Colored)
Навигация по главам: есть

Режиссер: Тайка Вайтити / Taika Waititi

В ролях: Крис Хемсворт, Том Хиддлстон, Кейт Бланшетт, Идрис Эльба, Джефф Голдблюм, Тесса Томпсон, Карл Урбан, Марк Руффало, Энтони Хопкинс, Бенедикт Камбербэтч, Тайка Вайтити, Рэйчел Хаус...

Описание: Вернувшись в Асгард в поисках таинственного врага, ведущего охоту на Камни Бесконечности, Тор обнаруживает, что действия его брата Локи, захватившего трон Асгарда, привели к приближению наиболее страшного события — Рагнарёка. По легенде это ознаменует последнюю битву Асгарда, последствием которой станет его полное уничтожение. В попытке предотвратить это событие Тору предстоит прибегнуть к помощи своего товарища из Мстителей — Халка. Вместе им предстоит столкнуться лицом к лицу со злейшим врагом всех девяти миров — огненным демоном Суртуром, целью которого является исполнение пророчества о Рагнарёке и уничтожение девяти миров.


Сэмпл

Качество видео: BDRip-AVC
Формат видео: MKV
Видео: AVC, 1108x584, 3310 kbps, 23.976 fps, 0.213 bit/pixel
Аудио 1: AC3 Dolby Digital, 3/2 (L,C,R,l,r) + LFE ch, 48.0 KHz, 448 Kbps
Аудио 2: AC3 Dolby Digital, 3/2 (L,C,R,l,r) + LFE ch, 48.0 KHz, 448 Kbps
Аудио 3: AC3 Dolby Digital, 3/2 (L,C,R,l,r) + LFE ch, 48.0 KHz, 448 Kbps
Формат субтитров: softsub (SRT)
raw [info]: 1108x584p 1:1 @ 24000/1001 fps (cfr)
x264 [info]: using SAR=1/1
x264 [info]: using cpu capabilities: MMX2 SSE2Fast SSSE3 SSE4.2 AVX
x264 [info]: profile High, level 4.1
x264 [info]: frame I:2130 Avg QP:13.49 size: 90320
x264 [info]: frame P:42689 Avg QP:15.95 size: 35586
x264 [info]: frame B:142929 Avg QP:18.24 size: 10688
x264 [info]: consecutive B-frames: 3.5% 2.3% 7.6% 23.3% 22.2% 30.9% 3.9% 4.8% 0.5% 0.4% 0.2% 0.4%
x264 [info]: mb I I16..4: 15.9% 62.3% 21.8%
x264 [info]: mb P I16..4: 1.3% 17.5% 2.8% P16..4: 25.9% 22.3% 13.1% 0.0% 0.0% skip:17.1%
x264 [info]: mb B I16..4: 0.1% 1.7% 0.4% B16..8: 29.1% 12.7% 4.0% direct: 5.3% skip:46.7% L0:42.4% L1:40.2% BI:17.4%
x264 [info]: 8x8 transform intra:77.2% inter:53.8%
x264 [info]: coded y,uvDC,uvAC intra: 88.4% 89.2% 77.2% inter: 21.7% 16.6% 6.4%
x264 [info]: i16 v,h,dc,p: 36% 20% 7% 38%
x264 [info]: i8 v,h,dc,ddl,ddr,vr,hd,vl,hu: 12% 13% 8% 8% 11% 11% 12% 10% 13%
x264 [info]: i4 v,h,dc,ddl,ddr,vr,hd,vl,hu: 10% 17% 6% 8% 14% 12% 13% 9% 12%
x264 [info]: i8c dc,h,v,p: 46% 24% 17% 13%
x264 [info]: Weighted P-Frames: Y:4.9% UV:2.6%
x264 [info]: ref P L0: 50.3% 10.7% 16.0% 5.9% 4.8% 3.2% 2.9% 1.5% 1.4% 1.1% 1.1% 1.0% 0.1% 0.0%
x264 [info]: ref B L0: 74.5% 10.8% 5.5% 2.9% 1.9% 1.4% 1.1% 0.7% 0.6% 0.4% 0.2%
x264 [info]: ref B L1: 94.8% 5.2%
x264 [info]: kb/s:3309.17
General
Unique ID : 226188643417798447328328348367215293976 (0xAA2A591FF4D8DEF3A755949065F27618)
Complete name : Thor. Ragnarok (2017) IMAX.mkv
Format : Matroska
Format version : Version 4 / Version 2
File size : 4.24 GiB
Duration : 2 h 10 min
Overall bit rate : 4 656 kb/s
Movie name : Тор: Рагнарёк / Thor: Ragnarok (2017) IMAX
Encoded date : UTC 2018-04-03 23:54:16
Writing application : mkvmerge v8.1.0 ('Psychedelic Postcard') 64bit
Writing library : libebml v1.3.1 + libmatroska v1.4.2
Cover : Yes
Attachments : cover.jpg

Video
ID : 1
Format : AVC
Format/Info : Advanced Video Codec
Format profile : High@L4.1
Format settings : CABAC / 12 Ref Frames
Format settings, CABAC : Yes
Format settings, ReFrames : 12 frames
Codec ID : V_MPEG4/ISO/AVC
Duration : 2 h 10 min
Bit rate : 3 309 kb/s
Width : 1 108 pixels
Height : 584 pixels
Display aspect ratio : 1.897
Frame rate mode : Constant
Frame rate : 23.976 (24000/1001) FPS
Color space : YUV
Chroma subsampling : 4:2:0
Bit depth : 8 bits
Scan type : Progressive
Bits/(Pixel*Frame) : 0.213
Stream size : 3.02 GiB (71%)
Title : Thor: Ragnarok (2017) By optik.1557
Writing library : x264 core 152 r2851kMod ba24899
Encoding settings : cabac=1 / ref=12 / deblock=1:-3:-2 / analyse=0x3:0x113 / me=umh / subme=10 / psy=1 / fade_compensate=0.00 / psy_rd=1.05:0.01 / mixed_ref=1 / me_range=32 / chroma_me=1 / trellis=2 / 8x8dct=1 / cqm=0 / deadzone=21,11 / fast_pskip=0 / chroma_qp_offset=-3 / threads=6 / lookahead_threads=1 / sliced_threads=0 / nr=0 / decimate=1 / interlaced=0 / bluray_compat=0 / constrained_intra=0 / bframes=11 / b_pyramid=2 / b_adapt=2 / b_bias=0 / direct=1 / weightb=1 / open_gop=0 / weightp=2 / keyint=250 / keyint_min=23 / scenecut=40 / intra_refresh=0 / rc_lookahead=60 / rc=crf / mbtree=0 / crf=16.7000 / qcomp=0.70 / qpmin=0 / qpmax=69 / qpstep=4 / vbv_maxrate=50000 / vbv_bufsize=62500 / crf_max=0.0 / nal_hrd=none / filler=0 / ip_ratio=1.40 / pb_ratio=1.30 / aq=3:0.85
Language : English
Default : Yes
Forced : No

Audio #1
ID : 2
Format : AC-3
Format/Info : Audio Coding 3
Codec ID : A_AC3
Duration : 2 h 10 min
Bit rate mode : Constant
Bit rate : 448 kb/s
Channel(s) : 6 channels
Channel positions : Front: L C R, Side: L R, LFE
Sampling rate : 48.0 kHz
Frame rate : 31.250 FPS (1536 SPF)
Bit depth : 16 bits
Compression mode : Lossy
Stream size : 418 MiB (10%)
Title : Дубляж (Blu-Ray. EUR)
Language : Russian
Service kind : Complete Main
Default : Yes
Forced : No

Audio #2
ID : 3
Format : AC-3
Format/Info : Audio Coding 3
Codec ID : A_AC3
Duration : 2 h 10 min
Bit rate mode : Constant
Bit rate : 448 kb/s
Channel(s) : 6 channels
Channel positions : Front: L C R, Side: L R, LFE
Sampling rate : 48.0 kHz
Frame rate : 31.250 FPS (1536 SPF)
Bit depth : 16 bits
Compression mode : Lossy
Stream size : 418 MiB (10%)
Title : AVO (Ю. Живов)
Language : Russian
Service kind : Complete Main
Default : No
Forced : No

Audio #3
ID : 4
Format : AC-3
Format/Info : Audio Coding 3
Codec ID : A_AC3
Duration : 2 h 10 min
Bit rate mode : Constant
Bit rate : 448 kb/s
Channel(s) : 6 channels
Channel positions : Front: L C R, Side: L R, LFE
Sampling rate : 48.0 kHz
Frame rate : 31.250 FPS (1536 SPF)
Bit depth : 16 bits
Compression mode : Lossy
Stream size : 418 MiB (10%)
Title : Original
Language : English
Service kind : Complete Main
Default : No
Forced : No

Text #1
ID : 5
Format : UTF-8
Codec ID : S_TEXT/UTF8
Codec ID/Info : UTF-8 Plain Text
Duration : 1 h 56 min
Bit rate : 0 b/s
Count of elements : 4
Stream size : 216 Bytes (0%)
Title : Форсированные
Language : Russian
Default : Yes
Forced : No

Text #2
ID : 6
Format : UTF-8
Codec ID : S_TEXT/UTF8
Codec ID/Info : UTF-8 Plain Text
Duration : 2 h 9 min
Bit rate : 77 b/s
Count of elements : 1576
Stream size : 73.5 KiB (0%)
Title : Полные
Language : Russian
Default : No
Forced : No

Text #3
ID : 7
Format : UTF-8
Codec ID : S_TEXT/UTF8
Codec ID/Info : UTF-8 Plain Text
Duration : 2 h 10 min
Bit rate : 87 b/s
Count of elements : 2092
Stream size : 83.8 KiB (0%)
Title : SDH
Language : Russian
Default : No
Forced : No

Text #4
ID : 8
Format : UTF-8
Codec ID : S_TEXT/UTF8
Codec ID/Info : UTF-8 Plain Text
Duration : 2 h 9 min
Bit rate : 51 b/s
Count of elements : 1761
Stream size : 48.9 KiB (0%)
Title : Full
Language : English
Default : No
Forced : No

Text #5
ID : 9
Format : UTF-8
Codec ID : S_TEXT/UTF8
Codec ID/Info : UTF-8 Plain Text
Duration : 2 h 10 min
Bit rate : 58 b/s
Count of elements : 2082
Stream size : 55.4 KiB (0%)
Title : SDH
Language : English
Default : No
Forced : No

Text #6
ID : 10
Format : UTF-8
Codec ID : S_TEXT/UTF8
Codec ID/Info : UTF-8 Plain Text
Duration : 2 h 10 min
Bit rate : 76 b/s
Count of elements : 2081
Stream size : 72.6 KiB (0%)
Title : SDH Colored
Language : English
Default : No
Forced : No

Menu
00:00:00.000 : en: The Great Prophecy / Великое пророчество
00:06:20.671 : en: The Tragedy Of Loki Of Asgard / Трагедия Локи
00:14:11.642 : en: A Worthy Inclusion / Достойное включение
00:22:12.873 : en: The Goddess Of Death / Богиня Смерти
00:26:43.059 : en: "Are You A Fighter, Or Are You Food?" / «Ты боец, или ты пища?»
00:31:29.721 : en: Heiress Apparent / Наследница
00:35:04.519 : en: The Grandmaster / Гроссмейстер
00:42:49.733 : en: The Eternal Flame / Вечный огонь
00:48:31.617 : en: The Contest Of Champions / Битва чемпионов
00:59:38.783 : en: The Resistance / Сопротивление
01:07:57.907 : en: Hotheaded Fools / Разъяренные дураки
01:17:30.604 : en: The Revengers / Претенденты
01:27:25.323 : en: "The Revolution Has Begun" / «Революция началась»"
01:36:08.721 : en: Ready For War / Готов к войне
01:42:35.732 : en: "Asgard Is Not A Place" / «Асгард это не место»
01:49:19.886 : en: "What Were You The God Of Again?" / «Ты что Бог снова?»
01:54:57.599 : en: Ragnarok / Рагнарёк
02:00:37.521 : en: End Credits / Конец



Скачать Тор.Рагнарёк.Thor.Ragnarok.(Тайка.Вайтити.Taika.Waititi).[2017.фантастика.боевик.комедия.приключения.BDRip-AVC].[IMAX.Edition].[Dub].+.[AVO].(Ю.Живов).+.Sub.Rus.Eng.+.Original.Eng.torrent без регистрации
Золото ЗОЛОТАЯ РАЗДАЧА! СКАЧАННОЕ НЕ ЗАСЧИТЫВАЕТСЯ! Золото
Дата: Зарегистрирован   [ Тип: внутренний ] Как тут cкачать?
MAGNET ссылка
MAGNET ссылка


Скачать .torrent

11 KB

Статус: проверено DHT
Скачан: торрент - 68 раз, раздача полностью - 40 раз
Размер: 4,24 GB
Оценка:  5 (Голосов: 1)
Поблагодарили: 2
Поделиться ссылкой на эту раздачу с друзьями:
В контактеFacebookОдноклассникиTwitterLivejournalМой МирLiveinternet
 

 
Показать сообщения:    


Вы не можете начинать темы
Вы не можете отвечать на сообщения
Вы не можете редактировать свои сообщения
Вы не можете удалять свои сообщения
Вы не можете голосовать в опросах
Вы не можете прикреплять файлы к сообщениям
Вы можете скачивать файлы