Loading...
Error

Скачать Все деньги мира / All the Money in the World (Ридли Скотт) [2017, Триллер, драма, криминал, детектив, биография, BDRip][1080p] [DUB iTunes] [R.G. GoldenShara] торрент без регистрации

Статистика раздачи
Размер:  4,31 GB   |    Скачан:  130 раз
Сидов:  6  [  0 KB/s  ]  
 
 
 
Автор Сообщение

Magnetto83

[] 


Все деньги мира / All the Money in the World


Год выпуска: 2017
Выпущено: США | Imperative Entertainment, Panorama Films, RedRum Films, Scott Free Productions, TriStar Productions
Жанр: Триллер, драма, криминал, детектив, биография
Продолжительность: 02:12:42
Перевод: Профессиональный (полное дублирование) | iTunes |
Субтитры: Русские (Полные), Английские (Full+SHD+SHD Colored)
Навигация по главам: Сохранены оригинальные главы как на Blu-ray

Слоган: «Заплатят все, кроме него»

Режиссер: Ридли Скотт

В ролях: Мишель Уильямс, Кристофер Пламмер, Марк Уолберг, Ромен Дюрис, Тимоти Хаттон, Чарли Пламмер, Чарли Шотуэлл, Эндрю Бакан, Марко Леонарди, Джузеппе Бонифати

Описание: Во всем мире не было человека богаче, чем Пол Гетти. Принадлежать к его роду — все равно что быть богом. Однако, когда в Риме неизвестные похищают его внука, нефтяной магнат, ко всеобщему шоку, наотрез отказывается платить выкуп. И тогда единственной надеждой для матери мальчика становится таинственный сотрудник службы безопасности самого Гетти…



Возраст: 18+ (зрителям, достигшим 18 лет. запрещено для детей)
Рейтинг MPAA: R (лицам до 17 лет обязательно присутствие взрослого)

Качество: BDRip 1080p
Формат: MKV
Видео кодек: H.264
Аудио кодек: AC3
Видео: 1920x800 (2.40:1), 4263 Кбит/с, 23.976 fps
Аудио: Русский Dolby Digital 5.1 (384 Кбит/с)


x264 [info]: frame I:1293 Avg QP:17.68 size:147432
x264 [info]: frame P:42675 Avg QP:20.70 size: 46190
x264 [info]: frame B:146928 Avg QP:22.76 size: 14166
x264 [info]: consecutive B-frames: 2.1% 3.7% 6.9% 26.1% 18.0% 28.7% 7.4% 6.0% 1.1%
x264 [total]: encoded 190896 frames, 1.28 fps, 4263.46 kb/s



General
Complete name : I:\Кино\Все деньги мира 2017 Dub Rus iTunes BDRip 1080p.mkv
Format : Matroska
Format version : Version 2
File size : 4.31 GiB
Duration : 2h 12mn
Overall bit rate : 4 650 Kbps
Movie name : Все деньги мира 2017 Dub Rus BDRip 1080p By R.G. GoldenShara
Encoded date : UTC 2018-04-02 11:59:01
Writing application : mkvmerge v5.2.0 ('I can't explain') built on Dec 18 2011 18:12:03
Writing library : libebml v1.2.3 + libmatroska v1.3.0
Attachements : Cover

Video
ID : 1
Format : AVC
Format/Info : Advanced Video Codec
Format profile : High@L4.1
Format settings, CABAC : Yes
Format settings, ReFrames : 5 frames
Codec ID : V_MPEG4/ISO/AVC
Duration : 2h 12mn
Bit rate : 4 263 Kbps
Width : 1 920 pixels
Height : 800 pixels
Display aspect ratio : 2.40:1
Frame rate mode : Constant
Frame rate : 23.976 fps
Color space : YUV
Chroma subsampling : 4:2:0
Bit depth : 8 bits
Scan type : Progressive
Bits/(Pixel*Frame) : 0.116
Stream size : 3.87 GiB (90%)
Title : Все деньги мира 2017 BDRip 1080p By Magnetto 83
Writing library : x264 core 146 r2538 121396c
Encoding settings : cabac=1 / ref=5 / deblock=1:-1:-1 / analyse=0x3:0x113 / me=umh / subme=10 / psy=1 / psy_rd=1.00:0.00 / mixed_ref=1 / me_range=32 / chroma_me=1 / trellis=2 / 8x8dct=1 / cqm=0 / deadzone=21,11 / fast_pskip=0 / chroma_qp_offset=-2 / threads=3 / lookahead_threads=1 / sliced_threads=0 / nr=0 / decimate=1 / interlaced=0 / bluray_compat=0 / constrained_intra=0 / bframes=8 / b_pyramid=2 / b_adapt=2 / b_bias=0 / direct=3 / weightb=1 / open_gop=0 / weightp=2 / keyint=250 / keyint_min=23 / scenecut=40 / intra_refresh=0 / rc=2pass / mbtree=0 / bitrate=4263 / ratetol=1.0 / qcomp=0.60 / qpmin=0 / qpmax=69 / qpstep=4 / cplxblur=20.0 / qblur=0.5 / ip_ratio=1.40 / pb_ratio=1.30 / aq=2:1.00
Language : English
Default : Yes
Forced : No

Audio
ID : 2
Format : AC-3
Format/Info : Audio Coding 3
Mode extension : CM (complete main)
Format settings, Endianness : Big
Codec ID : A_AC3
Duration : 2h 12mn
Bit rate mode : Constant
Bit rate : 384 Kbps
Channel(s) : 6 channels
Channel positions : Front: L C R, Side: L R, LFE
Sampling rate : 48.0 KHz
Compression mode : Lossy
Stream size : 364 MiB (8%)
Title : DD 5.1 @ 384 Kbps - Дубляж | iTunes |
Language : Russian
Default : Yes
Forced : No

Text #1
ID : 3
Format : UTF-8
Codec ID : S_TEXT/UTF8
Codec ID/Info : UTF-8 Plain Text
Title : Полные
Language : Russian
Default : No
Forced : No

Text #2
ID : 4
Format : UTF-8
Codec ID : S_TEXT/UTF8
Codec ID/Info : UTF-8 Plain Text
Title : Full
Language : English
Default : No
Forced : No

Text #3
ID : 5
Format : UTF-8
Codec ID : S_TEXT/UTF8
Codec ID/Info : UTF-8 Plain Text
Title : SDH
Language : English
Default : No
Forced : No

Text #4
ID : 6
Format : UTF-8
Codec ID : S_TEXT/UTF8
Codec ID/Info : UTF-8 Plain Text
Title : SDH Colored
Language : English
Default : No
Forced : No

Menu
00:00:00.000 : en:Chapter 1
00:10:55.113 : en:Chapter 2
00:19:10.358 : en:Chapter 3
00:30:35.500 : en:Chapter 4
00:39:27.907 : en:Chapter 5
00:48:36.664 : en:Chapter 6
00:55:26.156 : en:Chapter 7
01:05:59.164 : en:Chapter 8
01:15:27.606 : en:Chapter 9
01:24:42.369 : en:Chapter 10
01:28:20.587 : en:Chapter 11
01:34:55.064 : en:Chapter 12
01:42:14.170 : en:Chapter 13
01:48:11.485 : en:Chapter 14
01:56:07.169 : en:Chapter 15
02:03:08.381 : en:Chapter 16







Скачать Все.деньги.мира.All.the.Money.in.the.World.(Ридли.Скотт).[2017.Триллер.драма.криминал.детектив.биография.BDRip][1080p].[DUB.iTunes].[R.G.GoldenShara].torrent без регистрации
Золото ЗОЛОТАЯ РАЗДАЧА! СКАЧАННОЕ НЕ ЗАСЧИТЫВАЕТСЯ! Золото
Дата: Зарегистрирован   [ Тип: внутренний ] Как тут cкачать?
MAGNET ссылка
MAGNET ссылка


Скачать .torrent

11 KB

Статус: Τ временная раздача
Скачан: торрент - 130 раз, раздача полностью - 247 раз
Размер: 4,31 GB
Оценка:  5 (Голосов: 7)
Поблагодарили: 15
Поделиться ссылкой на эту раздачу с друзьями:
В контактеFacebookОдноклассникиTwitterLivejournalМой МирLiveinternet
 

 
Показать сообщения:    


Вы не можете начинать темы
Вы не можете отвечать на сообщения
Вы не можете редактировать свои сообщения
Вы не можете удалять свои сообщения
Вы не можете голосовать в опросах
Вы не можете прикреплять файлы к сообщениям
Вы можете скачивать файлы