Loading...
Error

Скачать Испытание невиновностью / Ordeal by Innocence (Сезон 01, серии 01-02 из 03) (Драма, детектив) [2018, Драма, детектив, триллер, криминал, HDTVRip] [MVO] (LostFilm) + Original торрент без регистрации

Статистика раздачи
Размер:  1,41 GB   |    Скачан:  61 раз
Сидов:  1  [  0 KB/s  ]  
 
 
 
Автор Сообщение

leon030982

[] 

Испытание невиновностью / Ordeal by Innocence
Год выпуска: 2018
Страна: Великобритания
Жанр: Драма, детектив, триллер, криминал
Продолжительность: ~00:56:00
Перевод: Профессиональный (многоголосый закадровый) | LostFilm

Режиссёр: Сандра Голдбахер

В ролях: Элис Ив, Элинор Томлинсон, Билл Найи, Энтони Бойл, Анна Чэнселлор, Морвен Кристи, Кристал Кларк, Кристиан Кук, Мэттью Гуд, Элла Пернелл

Описание: Адаптация одноименного романа Агаты Кристи. Сценарист сериала Феллс поменяла концовку истории, сделала ее более актуальной и свежей, а также выстроила целый лабиринт с шифрами и подсказками для пытливых зрителей.



Качество: HDTVRip
Формат: AVI
Видео: XviD, 704x352, 25 fps, ~1500 kbps
Аудио #1: 48 kHz, MPEG Layer 3, 2 ch, ~128.00 kbps | Rus
Аудио #2: 48 kHz, MPEG Layer 3, 2 ch, ~128.00 kbps | Eng
Субтитры: нет

Format : AVI
Format/Info : Audio Video Interleave
File size : 710 MiB
Duration : 55 min 53 s
Overall bit rate : 1 775 kb/s
Writing application : VirtualDubMod 1.5.10.2 (build 2540/release)
Writing library : VirtualDubMod build 2540/release

Video
ID : 0
Format : MPEG-4 Visual
Format profile : Advanced Simple@L5
Format settings : BVOP1 / Custom Matrix
Format settings, BVOP : 1
Format settings, QPel : No
Format settings, GMC : No warppoints
Format settings, Matrix : Custom
Codec ID : XVID
Codec ID/Hint : XviD
Duration : 55 min 53 s
Bit rate : 1 504 kb/s
Width : 704 pixels
Height : 352 pixels
Display aspect ratio : 2.000
Frame rate : 25.000 FPS
Color space : YUV
Chroma subsampling : 4:2:0
Bit depth : 8 bits
Scan type : Progressive
Compression mode : Lossy
Bits/(Pixel*Frame) : 0.243
Stream size : 601 MiB (85%)
Writing library : XviD 73

Audio #1
ID : 1
Format : MPEG Audio
Format version : Version 1
Format profile : Layer 3
Format settings : Joint stereo / MS Stereo
Codec ID : 55
Codec ID/Hint : MP3
Duration : 55 min 53 s
Bit rate mode : Constant
Bit rate : 128 kb/s
Channel(s) : 2 channels
Sampling rate : 48.0 kHz
Compression mode : Lossy
Delay relative to video : 16 ms
Stream size : 51.2 MiB (7%)
Alignment : Split accross interleaves
Interleave, duration : 40 ms (1.00 video frame)
Interleave, preload duratio : 500 ms

Audio #2
ID : 2
Format : MPEG Audio
Format version : Version 1
Format profile : Layer 3
Format settings : Joint stereo / MS Stereo
Codec ID : 55
Codec ID/Hint : MP3
Duration : 55 min 53 s
Bit rate mode : Constant
Bit rate : 128 kb/s
Channel(s) : 2 channels
Sampling rate : 48.0 kHz
Compression mode : Lossy
Delay relative to video : 16 ms
Stream size : 51.2 MiB (7%)
Alignment : Split accross interleaves
Interleave, duration : 40 ms (1.00 video frame)
Interleave, preload duratio : 500 ms
Внимание! Раздача ведётся путём добавления новых серий; при каждом добавлении создаётся новый торрент. Чтобы начать докачку новой серии, пользователям необходимо сделать следующее:
(1) остановить скачивание,
(2) удалить старый торрент у себя из клиента (старые серии удалять не надо),
(3) скачать новый торрент и запустить его у себя в клиенте вместо старого, при этом указать клиенту путь в старую папку куда и должно происходить скачивание новых серий.

Ваш клиент при этом должен произвести хеширование (проверку) старой папки (если не производит сам - помогите ему сделать это), и будет докачивать только те серии которых у вас ещё нет. Старые серии при этом не удаляются, а продолжают раздаваться!

Eсли вы уже удалили старые серии, то предотвратить повторную закачку старых серий можно, отжав галочку в соответствующих местах при запуске нового торрента. По возможности, желательно не удалять старые серии как можно дольше чтобы релизёр не столько продолжал раздавать старые серии, а смог сконцентрироваться на новых.



Скачать Испытание.невиновностью.Ordeal.by.Innocence.(Сезон.01.серии.01-02.из.03).(Драма.детектив).[2018.Драма.детектив.триллер.криминал.HDTVRip].[MVO].(LostFilm).+.Original.torrent без регистрации
Золото ЗОЛОТАЯ РАЗДАЧА! СКАЧАННОЕ НЕ ЗАСЧИТЫВАЕТСЯ! Золото
Дата: Зарегистрирован   [ Тип: внутренний ] Как тут cкачать?
MAGNET ссылка
MAGNET ссылка


Скачать .torrent

15 KB

Статус: проверено DHT
Скачан: торрент - 61 раз, раздача полностью - 7 раз
Размер: 1,41 GB
Оценка:  - (Голосов: 0)
Поблагодарили: 0
Поделиться ссылкой на эту раздачу с друзьями:
В контактеFacebookОдноклассникиTwitterLivejournalМой МирLiveinternet
 

 
Показать сообщения:    


Вы не можете начинать темы
Вы не можете отвечать на сообщения
Вы не можете редактировать свои сообщения
Вы не можете удалять свои сообщения
Вы не можете голосовать в опросах
Вы не можете прикреплять файлы к сообщениям
Вы можете скачивать файлы