Loading...
Error

Скачать У ковбоев так принято / The Cowboy Way (Грегг Чемпион) [1994, боевик, триллер, драма, комедия, криминал, вестерн, BDRip] [720p] [DVO]+[AVO]x2+[Eng]+[Sub Eng] торрент без регистрации

Статистика раздачи
Размер:  5,76 GB   |    Скачан:  43 раза
Сидов:  1  [  0 KB/s  ]  
 
 
 
Автор Сообщение

Marsianka

[] 

Информация о фильме
Название: У ковбоев так принято
Оригинальное название: The Cowboy Way
Год выхода: 1994
Жанр: боевик, триллер, драма, комедия, криминал, вестерн
Режиссер: Грегг Чемпион
В ролях: Вуди Харрельсон, Кифер Сазерленд, Дилан МакДермотт, Эрни Хадсон, Кара Буоно, Марг Хельгенбергер, Томас Милиан, Луис Гусман, Энджел Кабан, Мэттью Коулз

О фильме:
Два друга-ковбоя из американской глубинки приезжают в большой город, чтобы «навести там порядок». Бесстрашные чемпионы многочисленных местных родео, одетые, подобно персонажам старых голливудских вестернов, в современном городе выглядят деревенскими увальнями и совершеннейшим анахронизмом. Однако, как это обычно и бывает, наивность и врожденное чувство справедливости помогают им храбро сражаться с шайкой гангстеров, которые занимаются нелегальной переправкой эмигрантов с Кубы, в сети которых попалась дочь их друга.


Страна: США
Студия: Imagine Entertainment, Universal Pictures
Продолжительность: 01:46:42
Перевод: Профессиональный двухголосый, авторский

Файл
Кодек: x264
Качество: BDRip 720p
Видео: MPEG-4 AVC, 1280x694 (16:9), 23.976 fps, 6 576 Kbps (0.309 bit/pixel)
Аудио #1: AC3, 2 ch, 192 Кбит/с | Профессиональный двухголосый
Аудио #2: AC3, 6 ch, 384 Кбит/с | Aвторский (Гаврилов)
Аудио #3: AC3, 2 ch, 192 Кбит/с | Aвторский (Визгунов)
Аудио #4: AC3, 6 ch, 384 Кбит/с | Aнглийский
Субтитры: Английские
Релиз:
Полное имя : D:КИНО НА ДИСКУ ковбоев так принято.1994(В.Харрельсон, К.Сазерленд).k.e.n & MegaPeer.mkv
Формат : Matroska
Версия формата : Version 2
Размер файла : 5,76 Гбайт
Продолжительность : 1 ч. 46 м.
Общий поток : 7721 Кбит/сек
Название фильма : The.Cowboy.Way.1994
Дата кодирования : UTC 2018-04-05 17:32:25
Программа кодирования : mkvmerge v5.3.0 ('I could have danced') built on Feb 9 2012 10:38:07
Библиотека кодирования : libebml v1.2.3 + libmatroska v1.3.0
Обложка : Yes
Attachments : cover.jpg

Видео
Идентификатор : 1
Формат : AVC
Формат/Информация : Advanced Video Codec
Профиль формата : High@L4.1
Параметр CABAC формата : Да
Параметр ReFrames формата : 9 кадров
Идентификатор кодека : V_MPEG4/ISO/AVC
Продолжительность : 1 ч. 46 м.
Битрейт : 6576 Кбит/сек
Ширина : 1280 пикселей
Высота : 694 пикселя
Соотношение сторон : 1,85:1
Режим частоты кадров : Постоянный
Частота кадров : 23,976 (24000/1001) кадра/сек
Цветовое пространство : YUV
Субдискретизация насыщенности : 4:2:0
Битовая глубина : 8 бит
Тип развёртки : Прогрессивная
Бит/(Пиксели*Кадры) : 0.309
Размер потока : 4,78 Гбайт (83%)
Библиотека кодирования : x264 core 146 r2538 121396c
Настройки программы : cabac=1 / ref=9 / deblock=1:-3:-3 / analyse=0x3:0x133 / me=umh / subme=11 / psy=1 / psy_rd=1.00:0.00 / mixed_ref=1 / me_range=32 / chroma_me=1 / trellis=2 / 8x8dct=1 / cqm=0 / deadzone=21,11 / fast_pskip=0 / chroma_qp_offset=-2 / threads=12 / lookahead_threads=3 / sliced_threads=0 / nr=0 / decimate=0 / interlaced=0 / bluray_compat=0 / constrained_intra=0 / bframes=10 / b_pyramid=2 / b_adapt=2 / b_bias=0 / direct=3 / weightb=1 / open_gop=0 / weightp=2 / keyint=240 / keyint_min=23 / scenecut=40 / intra_refresh=0 / rc=2pass / mbtree=0 / bitrate=6576 / ratetol=1.0 / qcomp=0.60 / qpmin=0 / qpmax=69 / qpstep=4 / cplxblur=20.0 / qblur=0.5 / ip_ratio=1.40 / pb_ratio=1.30 / aq=3:0.90
Язык : English
Default : Да
Forced : Нет

Аудио #1
Идентификатор : 2
Формат : AC-3
Формат/Информация : Audio Coding 3
Расширение режима : CM (complete main)
Параметр Endianness формата : Big
Идентификатор кодека : A_AC3
Продолжительность : 1 ч. 46 м.
Вид битрейта : Постоянный
Битрейт : 192 Кбит/сек
Каналы : 2 канала
Расположение каналов : Front: L R
Частота : 48,0 КГц
Частота кадров : 31,250 кадров/сек (1536 spf)
Битовая глубина : 16 бит
Метод сжатия : С потерями
Размер потока : 147 Мбайт (2%)
Заголовок : Двухголосый
Язык : Russian
Default : Да
Forced : Нет

Аудио #2
Идентификатор : 3
Формат : AC-3
Формат/Информация : Audio Coding 3
Расширение режима : CM (complete main)
Параметр Endianness формата : Big
Идентификатор кодека : A_AC3
Продолжительность : 1 ч. 46 м.
Вид битрейта : Постоянный
Битрейт : 384 Кбит/сек
Каналы : 6 каналов
Расположение каналов : Front: L C R, Side: L R, LFE
Частота : 48,0 КГц
Частота кадров : 31,250 кадров/сек (1536 spf)
Битовая глубина : 16 бит
Метод сжатия : С потерями
Размер потока : 293 Мбайт (5%)
Заголовок : Авторский А.Гаврилов
Язык : Russian
Default : Нет
Forced : Нет

Аудио #3
Идентификатор : 4
Формат : AC-3
Формат/Информация : Audio Coding 3
Расширение режима : CM (complete main)
Параметр Endianness формата : Big
Идентификатор кодека : A_AC3
Продолжительность : 1 ч. 46 м.
Вид битрейта : Постоянный
Битрейт : 192 Кбит/сек
Каналы : 2 канала
Расположение каналов : Front: L R
Частота : 48,0 КГц
Частота кадров : 31,250 кадров/сек (1536 spf)
Битовая глубина : 16 бит
Метод сжатия : С потерями
Размер потока : 147 Мбайт (2%)
Заголовок : Авторский С. Визгунов
Язык : Russian
Default : Нет
Forced : Нет

Аудио #4
Идентификатор : 5
Формат : AC-3
Формат/Информация : Audio Coding 3
Расширение режима : CM (complete main)
Параметр Endianness формата : Big
Идентификатор кодека : A_AC3
Продолжительность : 1 ч. 46 м.
Вид битрейта : Постоянный
Битрейт : 384 Кбит/сек
Каналы : 6 каналов
Расположение каналов : Front: L C R, Side: L R, LFE
Частота : 48,0 КГц
Частота кадров : 31,250 кадров/сек (1536 spf)
Битовая глубина : 16 бит
Метод сжатия : С потерями
Размер потока : 293 Мбайт (5%)
Язык : English
Default : Нет
Forced : Нет

Текст
Идентификатор : 6
Формат : UTF-8
Идентификатор кодека : S_TEXT/UTF8
Идентификатор кодека/Информация : UTF-8 Plain Text
Язык : English
Default : Да
Forced : Нет

Меню
00:00:00.000 : en:
00:06:56.457 : en:
00:15:14.788 : en:
00:26:23.248 : en:
00:34:47.835 : en:
00:42:01.101 : en:
00:49:24.127 : en:
00:57:43.376 : en:
01:10:04.283 : en:
01:20:25.904 : en:
01:30:19.497 : en:
01:46:42.396 : en:



Скачать У.ковбоев.так.принято.The.Cowboy.Way.(Грегг.Чемпион).[1994.боевик.триллер.драма.комедия.криминал.вестерн.BDRip].[720p].[DVO]+[AVO]x2+[Eng]+[Sub.Eng].torrent без регистрации
Золото ЗОЛОТАЯ РАЗДАЧА! СКАЧАННОЕ НЕ ЗАСЧИТЫВАЕТСЯ! Золото
Дата: Зарегистрирован   [ Тип: внутренний ] Как тут cкачать?
MAGNET ссылка
MAGNET ссылка


Скачать .torrent

15 KB

Статус: проверено DHT
Скачан: торрент - 43 раз, раздача полностью - 6 раз
Размер: 5,76 GB
Оценка:  - (Голосов: 0)
Поблагодарили: 1
Поделиться ссылкой на эту раздачу с друзьями:
В контактеFacebookОдноклассникиTwitterLivejournalМой МирLiveinternet
 

 
Показать сообщения:    


Вы не можете начинать темы
Вы не можете отвечать на сообщения
Вы не можете редактировать свои сообщения
Вы не можете удалять свои сообщения
Вы не можете голосовать в опросах
Вы не можете прикреплять файлы к сообщениям
Вы можете скачивать файлы