Loading...
Error

Скачать 6 дней / 6 Days (Тоа Фрейзер) [2017, боевик, триллер, драма, история, BDRip-AVC] [MVO (лицензия iTunes)]+[Eng]+[Sub Eng] торрент без регистрации

Статистика раздачи
Размер:  1,68 GB   |    Скачан:  106 раз

Полного источника не было: 29 минут

 
 
 
Автор Сообщение

МихаНЕзатор

[] 

6 дней / 6 Days
«In the face of terror, a nation will show its strength»


Год выпуска: 2017
Страна: Новая Зеландия, Великобритания
Производство: General Film Corporation
Жанр: Боевик, триллер, драма, история
Режиссёр: Тоа Фрейзер

В ролях: Марк Стронг, Джейми Белл, Эбби Корниш, Иман Эллиотт, Мартин Шоу, Ронан Вайберт, Тим Пиготт-Смит, Джаред Тернер, Кип Чэпман, Николас Болт

Описание: В 1980 году по Лондону молниеносно разлетелась новость о террористической атаке, направленной на иранское посольство. Все началось с того, что группа неизвестных ворвалась в здание посольства и взяла в плен всех его сотрудников. Власти пытались договориться с террористами, однако их требования были невыполнимыми. Руководство спецназа приняло решение взять штурмом здание, несмотря на то, что могли появиться жертвы среди гражданского населения. Ситуация обострялась тем, что здание посольства было хорошо укреплено, и это мешало солдатам быстро достигать поставленных целей.

Дата премьеры (мир): 24 января 2018
Дата премьеры (РФ): 22 февраля 2018, «MEGOGO Distribution»



Продолжительность: 01:34:34
Перевод: Профессиональный многоголосый | iTunes
Субтитры: Английские
Реклама: Отсутствует

Качество: BDRip-AVC
Формат: MKV
Видео кодек: MPEG-4 AVC
Аудио кодек: AC3
Видео: 1024x428 (2.40:1), 23,976 fps, x264 ~1 705 kbps avg, 0.162 bit/pixel
Аудио #1: 48 kHz, AC3 Dolby Digital, 3/2 (L,C,R,l,r) + LFE ch, ~384.00 kbps avg | RUS (iTunes)
Аудио #2: 48 kHz, AC3 Dolby Digital, 3/2 (L,C,R,l,r) + LFE ch, ~448.00 kbps avg | ENG

Общее
Уникальный идентификатор : 218541373269965843211553444742783518790 (0xA4698998BC5E37059F06C587ADB74846)
Полное имя : E:OlLanDGroup6.Days.2017.BDRip(AVC).OlLanDGroup.mkv
Формат : Matroska
Версия формата : Version 2
Размер файла : 1,68 Гбайт
Продолжительность : 1 ч. 34 м.
Общий поток : 2537 Кбит/сек
Название фильма : 6.Days.2017 #TorpedoUK#
Дата кодирования : UTC 2018-04-05 01:02:49
Программа кодирования : mkvmerge v7.8.0 ('River Man') 32bit built on Apr 3 2015 12:11:22
Библиотека кодирования : libebml v1.3.1 + libmatroska v1.4.2
Обложка : Yes
Attachments : cover_land.jpg / small_cover.jpg / small_cover_land.jpg / cover.jpg

Видео
Идентификатор : 1
Формат : AVC
Формат/Информация : Advanced Video Codec
Профиль формата : High@L4.1
Параметр CABAC формата : Да
Параметр ReFrames формата : 10 кадров
Идентификатор кодека : V_MPEG4/ISO/AVC
Продолжительность : 1 ч. 34 м.
Битрейт : 1705 Кбит/сек
Ширина : 1024 пикселя
Высота : 428 пикселей
Соотношение сторон : 2,40:1
Режим частоты кадров : Постоянный
Частота кадров : 23,976 (24000/1001) кадра/сек
Цветовое пространство : YUV
Субдискретизация насыщенности : 4:2:0
Битовая глубина : 8 бит
Тип развёртки : Прогрессивная
Бит/(Пиксели*Кадры) : 0.162
Размер потока : 1,09 Гбайт (65%)
Библиотека кодирования : x264 core 146 r2538 121396c
Настройки программы : cabac=1 / ref=10 / deblock=1:-3:-3 / analyse=0x3:0x133 / me=umh / subme=11 / psy=1 / psy_rd=1.00:0.05 / mixed_ref=1 / me_range=48 / chroma_me=1 / trellis=2 / 8x8dct=1 / cqm=0 / deadzone=21,11 / fast_pskip=1 / chroma_qp_offset=-3 / threads=6 / lookahead_threads=1 / sliced_threads=0 / nr=0 / decimate=1 / interlaced=0 / bluray_compat=0 / constrained_intra=0 / bframes=10 / b_pyramid=2 / b_adapt=2 / b_bias=0 / direct=3 / weightb=1 / open_gop=0 / weightp=2 / keyint=240 / keyint_min=23 / scenecut=40 / intra_refresh=0 / rc_lookahead=40 / rc=2pass / mbtree=0 / bitrate=1705 / ratetol=1.0 / qcomp=0.60 / qpmin=0 / qpmax=69 / qpstep=4 / cplxblur=20.0 / qblur=0.5 / vbv_maxrate=50000 / vbv_bufsize=62500 / nal_hrd=none / filler=0 / ip_ratio=1.40 / pb_ratio=1.30 / aq=1:1.00
Язык : English
Default : Да
Forced : Нет

Аудио #1
Идентификатор : 2
Формат : AC-3
Формат/Информация : Audio Coding 3
Расширение режима : CM (complete main)
Параметр Endianness формата : Big
Идентификатор кодека : A_AC3
Продолжительность : 1 ч. 34 м.
Вид битрейта : Постоянный
Битрейт : 384 Кбит/сек
Каналы : 6 каналов
Расположение каналов : Front: L C R, Side: L R, LFE
Частота : 48,0 КГц
Частота кадров : 31,250 кадров/сек (1536 spf)
Битовая глубина : 16 бит
Метод сжатия : С потерями
Размер потока : 260 Мбайт (15%)
Заголовок : iTunes
Язык : Russian
Default : Да
Forced : Нет

Аудио #2
Идентификатор : 3
Формат : AC-3
Формат/Информация : Audio Coding 3
Расширение режима : CM (complete main)
Параметр Endianness формата : Big
Идентификатор кодека : A_AC3
Продолжительность : 1 ч. 34 м.
Вид битрейта : Постоянный
Битрейт : 448 Кбит/сек
Каналы : 6 каналов
Расположение каналов : Front: L C R, Side: L R, LFE
Частота : 48,0 КГц
Частота кадров : 31,250 кадров/сек (1536 spf)
Битовая глубина : 16 бит
Метод сжатия : С потерями
Размер потока : 303 Мбайт (18%)
Заголовок : Original
Язык : English
Default : Нет
Forced : Нет

Текст #1
Идентификатор : 4
Формат : UTF-8
Идентификатор кодека : S_TEXT/UTF8
Идентификатор кодека/Информация : UTF-8 Plain Text
Заголовок : Full
Язык : English
Default : Нет
Forced : Нет

Текст #2
Идентификатор : 5
Формат : UTF-8
Идентификатор кодека : S_TEXT/UTF8
Идентификатор кодека/Информация : UTF-8 Plain Text
Заголовок : SDH
Язык : English
Default : Нет
Forced : Нет

Меню
00:00:00.000 : en:Chapter 00
00:00:12.012 : en:Chapter 01
00:06:05.448 : en:Chapter 02
00:12:07.768 : en:Chapter 03
00:18:10.464 : en:Chapter 04
00:24:16.872 : en:Chapter 05
00:30:13.978 : en:Chapter 06
00:36:56.339 : en:Chapter 07
00:42:08.150 : en:Chapter 08
00:49:09.738 : en:Chapter 09
00:54:28.515 : en:Chapter 10
01:01:04.160 : en:Chapter 11
01:06:41.330 : en:Chapter 12
01:12:19.460 : en:Chapter 13
01:18:06.348 : en:Chapter 14
01:24:19.304 : en:Chapter 15
01:30:24.085 : en:Chapter 16



Скачать 6.дней.6.Days.(Тоа.Фрейзер).[2017.боевик.триллер.драма.история.BDRip-AVC].[MVO.(лицензия.iTunes)]+[Eng]+[Sub.Eng].torrent без регистрации
Золото ЗОЛОТАЯ РАЗДАЧА! СКАЧАННОЕ НЕ ЗАСЧИТЫВАЕТСЯ! Золото
Дата: Зарегистрирован   [ Тип: внутренний ] Как тут cкачать?
MAGNET ссылка
MAGNET ссылка


Скачать .torrent

18 KB

Статус: проверено DHT
Скачан: торрент - 106 раз, раздача полностью - 107 раз
Размер: 1,68 GB
Оценка:  - (Голосов: 0)
Поблагодарили: 5
Поделиться ссылкой на эту раздачу с друзьями:
В контактеFacebookОдноклассникиTwitterLivejournalМой МирLiveinternet
 

 
Показать сообщения:    


Вы не можете начинать темы
Вы не можете отвечать на сообщения
Вы не можете редактировать свои сообщения
Вы не можете удалять свои сообщения
Вы не можете голосовать в опросах
Вы не можете прикреплять файлы к сообщениям
Вы можете скачивать файлы