Loading...
Error

Скачать Отпетый мачо / Gun Shy (Саймон Уэст) [2017, боевик, триллер, комедия, криминал, приключения, BDRemux] [1080p] [MVO (лицензия iTunes)]+[Eng]+[Sub Eng] торрент без регистрации

Статистика раздачи
Размер:  17,37 GB   |    Скачан:  62 раза
Сидов:  1  [  0 KB/s  ]  
 
 
 
Автор Сообщение

МихаНЕзатор

[] 

Информация о фильме
Название: Отпетый мачо
Оригинальное название: Gun Shy
Год выхода: 2017
Жанр: боевик, триллер, комедия, криминал, приключения
Режиссер: Саймон Уэст

В ролях: Антонио Бандерас, Ольга Куриленко, Бен Кура, Марк Вэлли, Эшлин Лофтус, Дэвид Митчелл, Джесси Джонсон, Джереми Свифт, Миланка Брукс

О фильме: Генри по прозвищу Бес — рок-звезда со всеми вытекающими. Правда, дни его славы остались в прошлом, и теперь единственное, на что он способен — это лежать и попивать пиво. Однажды он отправляется на отдых в Чили, а местные пираты от безнадежности похищают его красавицу-жену и просят за нее выкуп в 1 млн. долларов. Для Генри выплатить эти деньги, как дать на чай официанту. Он уже собирается идти в банк, как в дело вмешивается местный консул, который только и мечтает о повышении, чтобы поскорее уехать из замшелой страны, поэтому дело представляет как террористический акт. Теперь Генри придется самому принимать решения и придумать, как обмануть консула и вызволить жену.



Страна: Великобритания
Студия: Salty Film
Продолжительность: 01:31:44
Перевод: Профессиональный многоголосый | iTunes

Качество: BDRemux 1080p
Видео: MPEG-4 AVC, 1920x1080, 23.1 Mbit/s, 23.976 fps
Звук:
Аудио #01: 48 kHz, AC3, 5.1, 384 Kbps | iTunes | RUS |
Аудио #02: 48 kHz, DTS-HD MA, 5.1, 3671 Kbps | Оригинал | ENG |
Субтитры: Английские
General
Unique ID : 325969061585504761788180625681335887746 (0xF53B5B8FF1316E6FCE11604A0EC6A782)
Complete name : C:Video111Gun.Shy.2017.BDREMUX.1080p.ExKinoRay.mkv
Format : Matroska
Format version : Version 4 / Version 2
File size : 17.4 GiB
Duration : 1 h 31 min
Overall bit rate mode : Variable
Overall bit rate : 27.1 Mb/s
Movie name : Gun Shy 2017 from ExKinoRay
Encoded date : UTC 2018-04-05 06:50:35
Writing application : mkvmerge v22.0.0 ('At The End Of The World') 64-bit
Writing library : libebml v1.3.5 + libmatroska v1.4.8

Video
ID : 1
Format : AVC
Format/Info : Advanced Video Codec
Format profile : High@L4.1
Format settings : CABAC / 4 Ref Frames
Format settings, CABAC : Yes
Format settings, ReFrames : 4 frames
Codec ID : V_MPEG4/ISO/AVC
Duration : 1 h 31 min
Bit rate mode : Variable
Bit rate : 23.1 Mb/s
Maximum bit rate : 35.0 Mb/s
Width : 1 920 pixels
Height : 1 080 pixels
Display aspect ratio : 16:9
Frame rate mode : Constant
Frame rate : 23.976 (24000/1001) FPS
Color space : YUV
Chroma subsampling : 4:2:0
Bit depth : 8 bits
Scan type : Progressive
Bits/(Pixel*Frame) : 0.464
Stream size : 14.8 GiB (85%)
Language : English
Default : Yes
Forced : No

Audio #1
ID : 2
Format : AC-3
Format/Info : Audio Coding 3
Codec ID : A_AC3
Duration : 1 h 31 min
Bit rate mode : Constant
Bit rate : 384 kb/s
Channel(s) : 6 channels
Channel positions : Front: L C R, Side: L R, LFE
Sampling rate : 48.0 kHz
Frame rate : 31.250 FPS (1536 SPF)
Bit depth : 16 bits
Compression mode : Lossy
Stream size : 252 MiB (1%)
Title : iTunes
Language : Russian
Service kind : Complete Main
Default : Yes
Forced : Yes

Audio #2
ID : 3
Format : DTS
Format/Info : Digital Theater Systems
Format profile : MA / Core
Codec ID : A_DTS
Duration : 1 h 31 min
Bit rate mode : Variable / Constant
Bit rate : 3 671 kb/s / 1 509 kb/s
Channel(s) : 6 channels
Channel positions : Front: L C R, Side: L R, LFE
Sampling rate : 48.0 kHz
Frame rate : 93.750 FPS (512 SPF)
Bit depth : 24 bits
Compression mode : Lossless / Lossy
Stream size : 2.35 GiB (14%)
Title : Original
Language : English
Default : No
Forced : No

Text
ID : 4
Format : UTF-8
Codec ID : S_TEXT/UTF8
Codec ID/Info : UTF-8 Plain Text
Duration : 1 h 30 min
Bit rate : 60 b/s
Count of elements : 1029
Stream size : 39.7 KiB (0%)
Title : Full
Language : English
Default : No
Forced : No

Menu
00:00:00.000 : en:Chapter 1
00:06:23.174 : en:Chapter 2
00:13:05.410 : en:Chapter 3
00:17:15.159 : en:Chapter 4
00:23:59.521 : en:Chapter 5
00:29:28.058 : en:Chapter 6
00:35:24.622 : en:Chapter 7
00:39:19.399 : en:Chapter 8
00:46:18.901 : en:Chapter 9
00:52:03.787 : en:Chapter 10
00:57:23.357 : en:Chapter 11
01:05:05.944 : en:Chapter 12
01:10:33.104 : en:Chapter 13
01:14:34.345 : en:Chapter 14
01:20:58.437 : en:Chapter 15
01:24:32.317 : en:Chapter 16



Скачать Отпетый.мачо.Gun.Shy.(Саймон.Уэст).[2017.боевик.триллер.комедия.криминал.приключения.BDRemux].[1080p].[MVO.(лицензия.iTunes)]+[Eng]+[Sub.Eng].torrent без регистрации
Золото ЗОЛОТАЯ РАЗДАЧА! СКАЧАННОЕ НЕ ЗАСЧИТЫВАЕТСЯ! Золото
Дата: Зарегистрирован   [ Тип: внутренний ] Как тут cкачать?
MAGNET ссылка
MAGNET ссылка


Скачать .torrent

88 KB

Статус: проверено DHT
Скачан: торрент - 62 раз, раздача полностью - 57 раз
Размер: 17,37 GB
Оценка:  - (Голосов: 0)
Поблагодарили: 2
Поделиться ссылкой на эту раздачу с друзьями:
В контактеFacebookОдноклассникиTwitterLivejournalМой МирLiveinternet
 

 
Показать сообщения:    


Вы не можете начинать темы
Вы не можете отвечать на сообщения
Вы не можете редактировать свои сообщения
Вы не можете удалять свои сообщения
Вы не можете голосовать в опросах
Вы не можете прикреплять файлы к сообщениям
Вы можете скачивать файлы