Loading...
Error

Скачать Инстинкт / Instinct (Сезон 01) (Дуглас Арниокоски, Константин Макрис, Эдвард Орнелас) [2018, триллер, драма, HDTV 1080p] [MVO] (FilmsClub) + [Orig] торрент без регистрации

Статистика раздачи
Размер:  51,81 GB   |    Скачан:  127 раз
Сидов:  1  [  0 KB/s  ]  
 
 
 
Автор Сообщение

leon030982

[] 

Инстинкт / Instinct


Год выпуска: 2018
Страна: США
Жанр: триллер, драма
Продолжительность: ~00:44:00
Перевод: Профессиональный (многоголосый закадровый) FilmsClub

Режиссёр: Дуглас Арниокоски, Константин Макрис, Эдвард Орнелас

В ролях: Навин Эндрюс, Алан Камминг, Бояна Новакович, Джон Майньери, Майкл Б. Сильвер, Джина Диас, Эвелин Лью, Элиз Рукер, Джеймс Боднар, Кристофф Бродер и др.

Описание: Добро пожаловать в анализ аномального поведения!
Блестящий наблюдатель, профессор и писатель Дилан Рейнхарт вместе со своей напарницей, детективом Элизабет Нидем, проведёт азартную и душевную экскурсию по самым неожиданным преступлениям Нью-Йорка. Точные выводы, неожиданные повороты, изворотливые преступники, а также великолепные Алан Каммингс и Бояна Новакович — в новом сериале канала CBS «Инстинкт».



Качество: HDTV 1080p
Контейнер: MKV
Видео: 1920x1080 (16:9), 23.976 fps, MPEG-4 AVC ~11000 kbps
Аудио: Rus: 48 kHz, AC3, 6 ch, 384 kbps
Субтитры: нет
General
Unique ID : 154880876195358882001911932155161208491 (0x7484F8C3267A9A3816AA422A3047E6AB)
Complete name : F:\Instinct.US.S01.1080p.HDTV.X264.films.club\Instinct.US.S01E01.1080p.HDTV.X264.films.club.mkv
Format : Matroska
Format version : Version 4 / Version 2
File size : 3.43 GiB
Duration : 43 min 27 s
Overall bit rate : 11.3 Mb/s
Encoded date : UTC 2018-03-24 06:28:53
Writing application : mkvmerge v20.0.0 ('I Am The Sun') 64-bit
Writing library : libebml v1.3.5 + libmatroska v1.4.8

Video
ID : 1
Format : AVC
Format/Info : Advanced Video Codec
Format profile : High@L4.1
Format settings : CABAC / 4 Ref Frames
Format settings, CABAC : Yes
Format settings, RefFrames : 4 frames
Codec ID : V_MPEG4/ISO/AVC
Duration : 43 min 27 s
Bit rate : 10.7 Mb/s
Width : 1 920 pixels
Height : 1 080 pixels
Display aspect ratio : 16:9
Frame rate mode : Constant
Frame rate : 23.976 (24000/1001) FPS
Color space : YUV
Chroma subsampling : 4:2:0
Bit depth : 8 bits
Scan type : Progressive
Bits/(Pixel*Frame) : 0.215
Stream size : 3.24 GiB (95%)
Writing library : x264 core 152 r2851 ba24899
Encoding settings : cabac=1 / ref=4 / deblock=1:-3:-3 / analyse=0x3:0x133 / me=umh / subme=11 / psy=1 / psy_rd=1.00:0.00 / mixed_ref=1 / me_range=32 / chroma_me=1 / trellis=2 / 8x8dct=1 / cqm=0 / deadzone=21,11 / fast_pskip=0 / chroma_qp_offset=-2 / threads=18 / lookahead_threads=2 / sliced_threads=0 / nr=0 / decimate=1 / interlaced=0 / bluray_compat=0 / constrained_intra=0 / bframes=5 / b_pyramid=2 / b_adapt=2 / b_bias=0 / direct=3 / weightb=1 / open_gop=0 / weightp=2 / keyint=250 / keyint_min=23 / scenecut=40 / intra_refresh=0 / rc_lookahead=60 / rc=crf / mbtree=1 / crf=17.0 / qcomp=0.60 / qpmin=0 / qpmax=69 / qpstep=4 / ip_ratio=1.40 / aq=1:1.00
Language : English
Default : No
Forced : No

Audio
ID : 2
Format : AC-3
Format/Info : Audio Coding 3
Format settings, Endianness : Big
Codec ID : A_AC3
Duration : 43 min 27 s
Bit rate mode : Constant
Bit rate : 384 kb/s
Channel(s) : 6 channels
Channel positions : Front: L C R, Side: L R, LFE
Sampling rate : 48.0 kHz
Frame rate : 31.250 FPS (1536 SPF)
Bit depth : 16 bits
Compression mode : Lossy
Stream size : 119 MiB (3%)
Title : films.club
Language : Russian
Service kind : Complete Main
Default : Yes
Forced : No



Скачать Инстинкт.Instinct.(Сезон.01).(Дуглас.Арниокоски.Константин.Макрис.Эдвард.Орнелас).[2018.триллер.драма.HDTV.1080p].[MVO].(FilmsClub).+.[Orig].torrent без регистрации
Золото ЗОЛОТАЯ РАЗДАЧА! СКАЧАННОЕ НЕ ЗАСЧИТЫВАЕТСЯ! Золото
Дата: Зарегистрирован   [ Тип: внутренний ] Как тут cкачать?
MAGNET ссылка
MAGNET ссылка


Скачать .torrent

261 KB

Статус: проверено DHT
Скачан: торрент - 127 раз, раздача полностью - 1 раз
Размер: 51,81 GB
Оценка:  - (Голосов: 0)
Поблагодарили: 1
Поделиться ссылкой на эту раздачу с друзьями:
В контактеFacebookОдноклассникиTwitterLivejournalМой МирLiveinternet
 

 
Показать сообщения:    


Вы не можете начинать темы
Вы не можете отвечать на сообщения
Вы не можете редактировать свои сообщения
Вы не можете удалять свои сообщения
Вы не можете голосовать в опросах
Вы не можете прикреплять файлы к сообщениям
Вы можете скачивать файлы