Loading...
Error

Скачать Товарищ генерал (Теодор Вульфович) [1973, военный, SATRip-AVC] торрент без регистрации

Статистика раздачи
Размер:  1,41 GB   |    Скачан:  51 раз
Сидов:  10  [  0 KB/s  ]  
 
 
 
Автор Сообщение

Marsianka

[] 

Товарищ генерал


Страна: СССР
Жанр: военный
Год выпуска: 1973
Продолжительность: 01:24:32
Перевод: Не требуется
Режиссер: Теодор Вульфович
В ролях: Игорь Ледогоров, Георгий Куликов, Виктор Шульгин, Павел Махотин,
Владими Осенев, Раиса Куркина, Ольга Гобзева, Зинаида Славина, Игорь Класс,
Алексей Преснецов, Юрий Волков, Юрий Волынцев, Шавкат Газиев, Виктор Задубровский,
Михаил Кислов, Владимир Кашпур, Виктор Павлов, Борис Кордунов, Борис Руднев, Леонид Кулагин, Роберт Лигерс

Описание: 1941 год. Армия командарма Капитонова принимает на себя удар немецких войск, рвущихся к Ростову.



Кодек: х264
Качество: SATRip-AVC
Видео: MPEG-4 AVC, 710х330@758x330, 25 fps, 2200 Кбит/с
Аудио: АС3, 2h, 192 Кбит/с
Субтитры: Нет

x264 [info]: frame I:723 Avg QP:16.51 size: 51529
x264 [info]: frame P:31203 Avg QP:19.07 size: 25077
x264 [info]: frame B:94886 Avg QP:20.69 size: 6063

Общее
Уникальный идентификатор : 223150443738107232277966736442587927829 (0xA7E13650C36F7AAA8359A771E714D515)
Полное имя : I:сссрТоварищ генерал 1973_SATRip-AVC_KORSAR.mkv
Формат : Matroska
Версия формата : Version 2
Размер файла : 1,41 Гбайт
Продолжительность : 1 ч. 24 м.
Общий поток : 2394 Кбит/сек
Дата кодирования : UTC 2018-04-04 11:21:26
Программа кодирования : mkvmerge v5.8.0 ('No Sleep / Pillow') built on Sep 2 2012 15:37:04
Библиотека кодирования : libebml v1.2.3 + libmatroska v1.3.0

Видео
Идентификатор : 1
Формат : AVC
Формат/Информация : Advanced Video Codec
Профиль формата : High@L4.1
Настройки формата : CABAC / 15 Ref Frames
Параметр CABAC формата : Да
Параметр RefFrames формата : 15 кадров
Идентификатор кодека : V_MPEG4/ISO/AVC
Продолжительность : 1 ч. 24 м.
Битрейт : 2200 Кбит/сек
Ширина : 710 пикселей
Высота : 330 пикселей
Соотношение сторон : 2,25:1
Соотношение сторон в оригинале : 2,25:1
Режим частоты кадров : Постоянный
Частота кадров : 25,000 кадров/сек
Цветовое пространство : YUV
Субдискретизация насыщенности : 4:2:0
Битовая глубина : 8 бит
Тип развёртки : Прогрессивная
Бит/(Пиксели*Кадры) : 0.376
Размер потока : 1,27 Гбайт (90%)
Библиотека кодирования : x264 core 152 r2851kMod ba24899
Настройки программы : cabac=1 / ref=15 / deblock=1:-2:-1 / analyse=0x3:0x133 / me=umh / subme=11 / psy=1 / fade_compensate=0.00 / psy_rd=0.90:0.05 / mixed_ref=1 / me_range=48 / chroma_me=1 / trellis=2 / 8x8dct=1 / cqm=0 / deadzone=21,11 / fast_pskip=0 / chroma_qp_offset=-3 / threads=10 / lookahead_threads=2 / sliced_threads=0 / nr=0 / decimate=0 / interlaced=0 / bluray_compat=0 / constrained_intra=0 / bframes=10 / b_pyramid=2 / b_adapt=2 / b_bias=0 / direct=3 / weightb=1 / open_gop=0 / weightp=2 / keyint=250 / keyint_min=25 / scenecut=40 / intra_refresh=0 / rc_lookahead=40 / rc=2pass / mbtree=0 / bitrate=2200 / ratetol=1.0 / qcomp=0.60 / qpmin=0 / qpmax=39 / qpstep=4 / cplxblur=20.0 / qblur=0.5 / vbv_maxrate=50000 / vbv_bufsize=62500 / nal_hrd=none / filler=0 / ip_ratio=1.25 / pb_ratio=1.30 / aq=1:0.90
Язык : English
Default : Да
Forced : Нет
Цветовой диапазон : Limited
Основные цвета : BT.601 PAL
Характеристики трансфера : BT.470 System B, BT.470 System G
Коэффициенты матрицы : BT.470 System B, BT.470 System G

Аудио
Идентификатор : 2
Формат : AC-3
Формат/Информация : Audio Coding 3
Параметр Endianness формата : Big
Идентификатор кодека : A_AC3
Продолжительность : 1 ч. 24 м.
Вид битрейта : Постоянный
Битрейт : 192 Кбит/сек
Каналы : 2 канала
Расположение каналов : Front: L R
Частота : 48,0 КГц
Частота кадров : 31,250 кадров/сек (1536 SPF)
Битовая глубина : 16 бит
Метод сжатия : С потерями
Задержка видео : 13 мс.
Размер потока : 116 Мбайт (8%)
Язык : Russian
Default : Да
Forced : Нет



Скачать Товарищ.генерал.(Теодор.Вульфович).[1973.военный.SATRip-AVC].torrent без регистрации
Золото ЗОЛОТАЯ РАЗДАЧА! СКАЧАННОЕ НЕ ЗАСЧИТЫВАЕТСЯ! Золото
Дата: Зарегистрирован   [ Тип: внешний ] Как тут cкачать?
MAGNET ссылка
MAGNET ссылка


Скачать .torrent

15 KB

Статус: проверено DHT
Скачан: торрент - 51 раз, раздача полностью - 16 раз
Размер: 1,41 GB
Оценка:  - (Голосов: 0)
Поблагодарили: 1
Поделиться ссылкой на эту раздачу с друзьями:
В контактеFacebookОдноклассникиTwitterLivejournalМой МирLiveinternet
 

 
Показать сообщения:    


Вы не можете начинать темы
Вы не можете отвечать на сообщения
Вы не можете редактировать свои сообщения
Вы не можете удалять свои сообщения
Вы не можете голосовать в опросах
Вы не можете прикреплять файлы к сообщениям
Вы можете скачивать файлы