Loading...
Error

Скачать Трембита (Олег Николаевский) [1968, мюзикл, мелодрама, комедия, HDTVRip-AVC] торрент без регистрации

Статистика раздачи
Размер:  3,19 GB   |    Скачан:  36 раз
Сидов:  1  [  0 KB/s  ]  
 
 
 
Автор Сообщение

Marsianka

[] 

Информация о фильме
Название: Трембита
Год выхода: 1968
Жанр: мюзикл, мелодрама, комедия
Режиссер: Олег Николаевский
В ролях: Евгений Весник, Ольга Аросева, Алексей Чернов, Николай Трофимов, Людмила Купина, Юлия Вуккерт, Иван Переверзев, Савелий Крамаров, Сергей Блинников, Игорь Класс

О фильме: Только что отгремела Вторая мировая война. Бывший дворецкий местного графа, что бежал вместе с немцами, тайно вернулся в село, чтобы найти хозяйский клад, присвоить его и зажить припеваючи. Однако из этой затеи ничего не вышло…



Страна: СССР
Студия: Свердловская киностудия
Продолжительность: 01:27:14

Файл
Кодек: х264
Качество: HDTVRip-AVC
Видео: MPEG-4 AVC, 1152x484, 25 fps, 5005 Кбит/с
Звук: AC3, 2 ch, 224 Кбит/с

x264 [info]: frame I:907 Avg QP:16.68 size:137559
x264 [info]: frame P:36835 Avg QP:18.82 size: 56627
x264 [info]: frame B:93064 Avg QP:20.48 size: 11421

Общее
Уникальный идентификатор : 246450752720531602038269939960399170255 (0xB968B03E22E41510BDC044308A5E8ACF)
Полное имя : Трембита_1968-HDTVRip-AVC.mkv
Формат : Matroska
Версия формата : Version 2
Размер файла : 3,19 Гбайт
Продолжительность : 1 ч. 27 м.
Общий поток : 5230 Кбит/сек
Дата кодирования : UTC 2017-05-27 01:51:26
Программа кодирования : mkvmerge v5.8.0 ('No Sleep / Pillow') built on Sep 2 2012 15:37:04
Библиотека кодирования : libebml v1.2.3 + libmatroska v1.3.0

Видео
Идентификатор : 1
Формат : AVC
Формат/Информация : Advanced Video Codec
Профиль формата : High@L4.1
Параметр CABAC формата : Да
Параметр ReFrames формата : 12 кадров
Идентификатор кодека : V_MPEG4/ISO/AVC
Продолжительность : 1 ч. 27 м.
Битрейт : 5005 Кбит/сек
Ширина : 1152 пикселя
Высота : 484 пикселя
Соотношение сторон : 2,40:1
Режим частоты кадров : Постоянный
Частота кадров : 25,000 кадров/сек
Цветовое пространство : YUV
Субдискретизация насыщенности : 4:2:0
Битовая глубина : 8 бит
Тип развёртки : Прогрессивная
Бит/(Пиксели*Кадры) : 0.359
Размер потока : 2,99 Гбайт (94%)
Заголовок : korsar.tv
Библиотека кодирования : x264 core 148 r2744kMod b97ae06
Настройки программы : cabac=1 / ref=12 / deblock=1:-2:-1 / analyse=0x3:0x113 / me=umh / subme=10 / psy=1 / fade_compensate=0.00 / psy_rd=1.05:0.10 / mixed_ref=1 / me_range=32 / chroma_me=1 / trellis=2 / 8x8dct=1 / cqm=0 / deadzone=21,11 / fast_pskip=0 / chroma_qp_offset=-3 / threads=12 / lookahead_threads=2 / sliced_threads=0 / nr=0 / decimate=0 / interlaced=0 / bluray_compat=0 / constrained_intra=0 / bframes=8 / b_pyramid=2 / b_adapt=2 / b_bias=0 / direct=3 / weightb=1 / open_gop=0 / weightp=2 / keyint=250 / keyint_min=25 / scenecut=40 / intra_refresh=0 / rc=2pass / mbtree=0 / bitrate=5005 / ratetol=1.0 / qcomp=0.63 / qpmin=0 / qpmax=39 / qpstep=4 / cplxblur=20.0 / qblur=0.5 / ip_ratio=1.25 / pb_ratio=1.30 / aq=2:1.00
Язык : English
Default : Да
Forced : Нет
Цветовой диапазон : Limited
Основные цвета : BT.709
Характеристики трансфера : BT.709
Коэффициенты матрицы : BT.709

Аудио
Идентификатор : 2
Формат : AC-3
Формат/Информация : Audio Coding 3
Расширение режима : CM (complete main)
Параметр Endianness формата : Big
Идентификатор кодека : A_AC3
Продолжительность : 1 ч. 27 м.
Вид битрейта : Постоянный
Битрейт : 224 Кбит/сек
Каналы : 2 канала
Расположение каналов : Front: L R
Частота : 48,0 КГц
Частота кадров : 31,250 кадров/сек (1536 spf)
Битовая глубина : 16 бит
Метод сжатия : С потерями
Размер потока : 140 Мбайт (4%)
Язык : Russian
Default : Да
Forced : Нет
Релиз от:



Скачать Трембита.(Олег.Николаевский).[1968.мюзикл.мелодрама.комедия.HDTVRip-AVC].torrent без регистрации
Золото ЗОЛОТАЯ РАЗДАЧА! СКАЧАННОЕ НЕ ЗАСЧИТЫВАЕТСЯ! Золото
Дата: Зарегистрирован   [ Тип: внутренний ] Как тут cкачать?
MAGNET ссылка
MAGNET ссылка


Скачать .torrent

17 KB

Статус: проверено DHT
Скачан: торрент - 36 раз, раздача полностью - 3 раз
Размер: 3,19 GB
Оценка:  - (Голосов: 0)
Поблагодарили: 0
Поделиться ссылкой на эту раздачу с друзьями:
В контактеFacebookОдноклассникиTwitterLivejournalМой МирLiveinternet
 

 
Показать сообщения:    


Вы не можете начинать темы
Вы не можете отвечать на сообщения
Вы не можете редактировать свои сообщения
Вы не можете удалять свои сообщения
Вы не можете голосовать в опросах
Вы не можете прикреплять файлы к сообщениям
Вы можете скачивать файлы