Loading...
Error

Скачать Пришельцы с Марса / Invaders from Mars (Тоуб Хупер) [1986, ужасы, фантастика, BDRip] [720p] [AVO (Ю.Живов)]+[Оригинал Eng]+[Sub Eng] торрент без регистрации

Статистика раздачи
Размер:  4,37 GB   |    Скачан:  45 раз
Сидов:  1  [  0 KB/s  ]  
 
 
 
Автор Сообщение

Marsianka

[] 

Страна: США
Жанр: ужасы, фантастика
Год выпуска: 1986
Продолжительность: 01:39:29
Перевод: Авторский (Ю.Живов) + Оригинальный
Субтитры: английские.
Режиссер: Тоуб Хупер / Tobe Hooper
В ролях: Карен Блэк (Linda Magnusson), Хантер Карсон (David Gardner), Тимоти Боттомс (George Gardner), Лорейн Ньюмен (Ellen Gardner), Джеймс Карен (Gen. Climet Wilson), Бад Корт (Mark Weinstein), Луиза Флетчер (Mrs. McKeltch), Эрик Пиерпоинт (Sgt. Maj. Rinaldi), Кристофер Оллпорт (Captain Curtis), Дональд Хоттон (Old NASA Scientist), Кеннет Кимминс (Officer Kenney), Чарли Делл (Mr. Cross)
Описание: Вторгшиеся на Землю марсиане обосновываются в американской глубинке и подчиняют себе людей, превращая их в послушные машины. Противостоит им мальчишка, который хочет спасти своих родителей.

MPAA: PG - Рекомендуется присутствие родителей
Семпл
Качество: BDRip
Контейнер: MKV

Видео: AVC, 1280x544 (2.35:1), 5906 kbps, 23,976 fps, 0,354 bpp
Аудио №1: русский / AC3 / 2.0 / 48 kHz / 192 kbps
Аудио №2: английский / AC3 / 2.0 / 48 kHz / 192 kbps

Format : Matroska
Format version : Version 2
File size : 4.37 GiB
Duration : 1h 39mn
Overall bit rate : 6 291 Kbps
Movie name : = Пришельцы с Марса / Invaders from Mars BDRip 720p by SC Kosmos =
Encoded date : UTC 2014-10-30 15:19:16
Writing application : mkvmerge v3.3.0 ('Language') gebaut am Mar 24 2010 14:59:24
Writing library : libebml v0.8.0 + libmatroska v0.9.0

Video
ID : 1
Format : AVC
Format/Info : Advanced Video Codec
Format profile : High@L4.1
Format settings, CABAC : Yes
Format settings, ReFrames : 10 frames
Codec ID : V_MPEG4/ISO/AVC
Duration : 1h 39mn
Bit rate : 5 906 Kbps
Width : 1 280 pixels
Height : 544 pixels
Display aspect ratio : 2.35:1
Frame rate : 23.976 fps
Color space : YUV
Chroma subsampling : 4:2:0
Bit depth : 8 bits
Scan type : Progressive
Bits/(Pixel*Frame) : 0.354
Stream size : 4.02 GiB (92%)
Title : Пришельцы с Марса / Invaders from Mars BDRip 720p by SC Kosmos
Writing library : x264 core 142 r2479 dd79a61
Encoding settings : cabac=1 / ref=10 / deblock=1:-2:-2 / analyse=0x3:0x113 / me=umh / subme=11 / psy=1 / psy_rd=1.00:0.00 / mixed_ref=1 / me_range=32 / chroma_me=1 / trellis=2 / 8x8dct=1 / cqm=0 / deadzone=21,11 / fast_pskip=0 / chroma_qp_offset=-2 / threads=12 / lookahead_threads=1 / sliced_threads=0 / nr=0 / decimate=1 / interlaced=0 / bluray_compat=0 / constrained_intra=0 / bframes=10 / b_pyramid=2 / b_adapt=1 / b_bias=0 / direct=3 / weightb=1 / open_gop=0 / weightp=2 / keyint=240 / keyint_min=23 / scenecut=40 / intra_refresh=0 / rc_lookahead=40 / rc=2pass / mbtree=0 / bitrate=5906 / ratetol=1.0 / qcomp=0.60 / qpmin=0 / qpmax=69 / qpstep=4 / cplxblur=20.0 / qblur=0.5 / vbv_maxrate=50000 / vbv_bufsize=50000 / nal_hrd=none / filler=0 / ip_ratio=1.40 / pb_ratio=1.30 / aq=1:1.00 / zones=138110,143134,b=0.28
Language : English
Default : No
Forced : No

Audio #1
ID : 2
Format : AC-3
Format/Info : Audio Coding 3
Mode extension : CM (complete main)
Codec ID : A_AC3
Duration : 1h 39mn
Bit rate mode : Constant
Bit rate : 192 Kbps
Channel(s) : 2 channels
Channel positions : Front: L R
Sampling rate : 48.0 KHz
Bit depth : 16 bits
Compression mode : Lossy
Stream size : 137 MiB (3%)
Title : AVO ( Ю.Живов )
Language : Russian
Default : Yes
Forced : No

Audio #2
ID : 3
Format : AC-3
Format/Info : Audio Coding 3
Mode extension : CM (complete main)
Codec ID : A_AC3
Duration : 1h 39mn
Bit rate mode : Constant
Bit rate : 192 Kbps
Channel(s) : 2 channels
Channel positions : Front: L R
Sampling rate : 48.0 KHz
Bit depth : 16 bits
Compression mode : Lossy
Stream size : 137 MiB (3%)
Language : English
Default : No
Forced : No

Text
ID : 4
Format : UTF-8
Codec ID : S_TEXT/UTF8
Codec ID/Info : UTF-8 Plain Text
Language : English
Default : No
Forced : No



Скачать Пришельцы.с.Марса.Invaders.from.Mars.(Тоуб.Хупер).[1986.ужасы.фантастика.BDRip].[720p].[AVO.(Ю.Живов)]+[Оригинал.Eng]+[Sub.Eng].torrent без регистрации
Золото ЗОЛОТАЯ РАЗДАЧА! СКАЧАННОЕ НЕ ЗАСЧИТЫВАЕТСЯ! Золото
Дата: Зарегистрирован   [ Тип: внутренний ] Как тут cкачать?
MAGNET ссылка
MAGNET ссылка


Скачать .torrent

23 KB

Статус: проверено DHT
Скачан: торрент - 45 раз, раздача полностью - 19 раз
Размер: 4,37 GB
Оценка:  - (Голосов: 0)
Поблагодарили: 1
Поделиться ссылкой на эту раздачу с друзьями:
В контактеFacebookОдноклассникиTwitterLivejournalМой МирLiveinternet
 

 
Показать сообщения:    


Вы не можете начинать темы
Вы не можете отвечать на сообщения
Вы не можете редактировать свои сообщения
Вы не можете удалять свои сообщения
Вы не можете голосовать в опросах
Вы не можете прикреплять файлы к сообщениям
Вы можете скачивать файлы