Loading...
Error

Скачать Забыть Париж / Forget Paris (Билли Кристал) [1995, мелодрама, комедия, WEB-DL] [1080p] [AVO]x2+[Оригинал Eng]+[Sub Eng] торрент без регистрации

Статистика раздачи
Размер:  9,72 GB   |    Скачан:  43 раза
Сидов:  1  [  0 KB/s  ]  
 
 
 
Автор Сообщение

Marsianka

[] 

Название: Забыть Париж
Оригинальное название: Forget Paris
Год выпуска: Забыть 1995
Выпущено: США, Castle Rock Entertainment, Face Productions
Жанр: мелодрама, комедия
Режиссер: Билли Кристал
В ролях: Билли Кристал, Дебра Уингер, Джо Мантенья, Синтия Стивенсон, Ричард Мейсер, Джули Кавнер, Уильям Хикки, Роберт Костанцо, Джон Спенсер, Том Райт

О фильме:
По сюжету - это история любви, а рассказ ведут по очереди друзья главного героя. Первым начинает спортивный журналист Джо Мантенья - он рассказывает своей невесте, пока они ждут гостей в ресторане о своем друге. Баскетбольный рефери высочайшего класса (Кристал) везет во Францию тело своего скончавшегося отца, завещавшего похоронить его вместе с ребятами его взвода, павшими во время высадки. Авиакомпания потеряла гроб, как простой чемодан, и Билли пришлось два дня провести в аэропорту, где он и познакомился с представительницей компании Деброй Уингер, ставшей в дальнейшем его женой. Все перипетии их четырехлетней совместной жизни пройдут перед зрителем.



Продолжительность: 01:42:22
Перевод: Авторский
Субтитры: Английские
Навигация по главам: Есть

Файл
Качество: WEB-DL 1080p
Видео: MPEG-4 AVC, 12,9 Мбит/сек, 1920x1080, 23,976 кадра/сек
Аудио #1: AC3, 2 ch, 192 Кбит/сек | Русский, авторский (одноголосый закадровый) Антон Алексеев
Аудио #2: AC3, 2 ch, 192 Кбит/сек | Русский, авторский (одноголосый закадровый) Пётр Карцев
Аудио #3: EAC3, 2 ch, 224 Кбит/сек | Английский, оригинал
Общее
Уникальный идентификатор : 202058102144542974236407280556344695981 (0x9802F995D6F94AD4A351778C47C95CAD)
Полное имя : Забыть.Париж.1995.WEB-DL.1080p.mkv
Формат : Matroska
Версия формата : Version 2
Размер файла : 9,72 Гбайт
Продолжительность : 1 ч. 41 м.
Режим общего битрейта : Переменный
Общий поток : 13,8 Мбит/сек
Дата кодирования : UTC 2018-04-07 13:38:38
Программа кодирования : mkvmerge v5.8.0 ('No Sleep / Pillow') built on Sep 2 2012 15:37:04
Библиотека кодирования : libebml v1.2.3 + libmatroska v1.3.0

Видео
Идентификатор : 1
Формат : AVC
Формат/Информация : Advanced Video Codec
Профиль формата : High@L4
Настройки формата : CABAC / 4 Ref Frames
Параметр CABAC формата : Да
Параметр RefFrames формата : 4 кадра
Идентификатор кодека : V_MPEG4/ISO/AVC
Продолжительность : 1 ч. 41 м.
Вид битрейта : Переменный
Битрейт : 12,9 Мбит/сек
Максимальный битрейт : 15,0 Мбит/сек
Ширина : 1920 пикселей
Высота : 1080 пикселей
Соотношение сторон : 16:9
Режим частоты кадров : Постоянный
Частота кадров : 23,976 (24000/1001) кадра/сек
Цветовое пространство : YUV
Субдискретизация насыщенности : 4:2:0
Битовая глубина : 8 бит
Тип развёртки : Прогрессивная
Бит/(Пиксели*Кадры) : 0.259
Размер потока : 9,10 Гбайт (94%)
Язык : English
Default : Да
Forced : Нет
Цветовой диапазон : Limited
Основные цвета : BT.709
Характеристики трансфера : BT.709
Коэффициенты матрицы : BT.709

Аудио #1
Идентификатор : 2
Формат : AC-3
Формат/Информация : Audio Coding 3
Идентификатор кодека : A_AC3
Продолжительность : 1 ч. 41 м.
Вид битрейта : Постоянный
Битрейт : 192 Кбит/сек
Каналы : 2 канала
Расположение каналов : Front: L R
Частота : 48,0 КГц
Частота кадров : 31,250 кадров/сек (1536 SPF)
Битовая глубина : 16 бит
Метод сжатия : С потерями
Размер потока : 139 Мбайт (1%)
Заголовок : AVO | А. Алексеев
Язык : Russian
По умолчанию : Да
Принудительно : Нет

Аудио #2
Идентификатор : 3
Формат : AC-3
Формат/Информация : Audio Coding 3
Идентификатор кодека : A_AC3
Продолжительность : 1 ч. 41 м.
Вид битрейта : Постоянный
Битрейт : 192 Кбит/сек
Каналы : 2 канала
Расположение каналов : Front: L R
Частота : 48,0 КГц
Частота кадров : 31,250 кадров/сек (1536 SPF)
Битовая глубина : 16 бит
Метод сжатия : С потерями
Размер потока : 139 Мбайт (1%)
Заголовок : AVO | П. Карцев
Язык : Russian
По умолчанию : Нет
Принудительно : Нет

Аудио #3
Идентификатор : 4
Формат : E-AC-3
Формат/Информация : Enhanced Audio Coding 3
Идентификатор кодека : A_EAC3
Продолжительность : 1 ч. 41 м.
Вид битрейта : Постоянный
Битрейт : 224 Кбит/сек
Каналы : 2 канала
Расположение каналов : Front: L R
Частота : 48,0 КГц
Частота кадров : 187,500 кадров/сек (256 SPF)
Метод сжатия : С потерями
Размер потока : 162 Мбайт (2%)
Заголовок : Original
Язык : English
По умолчанию : Нет
Принудительно : Нет

Текст
Идентификатор : 5
Формат : UTF-8
Идентификатор кодека : S_TEXT/UTF8
Идентификатор кодека/Информация : UTF-8 Plain Text
Язык : English
По умолчанию : Нет
Принудительно : Нет

Меню
00:00:00.000 : en:Chapter 1.
00:01:50.976 : en:Chapter 2.
00:06:15.976 : en:Chapter 3.
00:09:42.976 : en:Chapter 4.
00:13:00.976 : en:Chapter 5.
00:18:44.976 : en:Chapter 6.
00:21:37.976 : en:Chapter 7.
00:24:24.976 : en:Chapter 8.
00:29:08.976 : en:Chapter 9.
00:32:07.976 : en:Chapter 10.
00:36:51.976 : en:Chapter 11.
00:41:29.976 : en:Chapter 12.
00:44:35.976 : en:Chapter 13.
00:47:07.976 : en:Chapter 14.
00:50:34.976 : en:Chapter 15.
00:54:39.976 : en:Chapter 16.
00:57:04.976 : en:Chapter 17.
00:59:12.976 : en:Chapter 18.
01:03:34.976 : en:Chapter 19.
01:05:43.976 : en:Chapter 20.
01:09:55.976 : en:Chapter 21.
01:12:42.976 : en:Chapter 22.
01:19:51.976 : en:Chapter 23.
01:23:51.976 : en:Chapter 24.
01:27:41.976 : en:Chapter 25.
01:29:53.976 : en:Chapter 26.
01:33:30.976 : en:Chapter 27.
01:35:43.976 : en:Chapter 28.
01:36:17.976 : en:Chapter 29.
01:40:33.976 : en:Chapter 30.
Исходник видео WEB-DL Amazon
Сборка:



Скачать Забыть.Париж.Forget.Paris.(Билли.Кристал).[1995.мелодрама.комедия.WEB-DL].[1080p].[AVO]x2+[Оригинал.Eng]+[Sub.Eng].torrent без регистрации
Золото ЗОЛОТАЯ РАЗДАЧА! СКАЧАННОЕ НЕ ЗАСЧИТЫВАЕТСЯ! Золото
Дата: Зарегистрирован   [ Тип: внутренний ] Как тут cкачать?
MAGNET ссылка
MAGNET ссылка


Скачать .torrent

50 KB

Статус: проверено DHT
Скачан: торрент - 43 раз, раздача полностью - 1 раз
Размер: 9,72 GB
Оценка:  - (Голосов: 0)
Поблагодарили: 0
Поделиться ссылкой на эту раздачу с друзьями:
В контактеFacebookОдноклассникиTwitterLivejournalМой МирLiveinternet
 

 
Показать сообщения:    


Вы не можете начинать темы
Вы не можете отвечать на сообщения
Вы не можете редактировать свои сообщения
Вы не можете удалять свои сообщения
Вы не можете голосовать в опросах
Вы не можете прикреплять файлы к сообщениям
Вы можете скачивать файлы