Loading...
Error

Скачать Французский поцелуй / French Kiss (Лоуренс Кэздан) [1995, драма, мелодрама, комедия, BDRip] [MVO]x2+[DVO]x2+[AVO] торрент без регистрации

Статистика раздачи
Размер:  2,19 GB   |    Скачан:  55 раз
Сидов:  1  [  0 KB/s  ]  
 
 
 
Автор Сообщение

Marsianka

[] 

Название: Французский поцелуй
Оригинальное название: French Kiss
Год выхода: 1995
Жанр: драма, мелодрама, комедия
Режиссер: Лоуренс Кэздан
В ролях: Мег Райан, Кевин Клайн, Тимоти Хаттон, Жан Рено, Франсуа Клюзе, Рени Хамфри, Майкл Райли, Элизабет Коммелин, Сьюзан Анбех, Лорен Шпильфогель, Виктор Гарривье, Микель Браун, Луиз Дешам, Клаудио Тодесчини, Джерри Харт, Джоэнна Павлис, Барбара Шульц, Клеман Сибони, Адам Брукс, Филипп Гарнье, Жан Корсо, Майк Джонс, Мари-Кристин Адам, Фаусто Костантино, Доминик Ренье, Инге Офферман, Николас Хоутри, Вольфганг Писсорс, Никола Оберманн, Дороти Пикард, Жан Эллейн

О фильме:Когда ее жених Чарли влюбляется в другую, Кейт отправляется на его поиски. В самолете она знакомится с загадочным, очаровательным французом Люком, который оказывается контрабандистом, подложившим ей в сумочку дорогое ожерелье, чтобы пройти таможню. Но Кейт потеряла все - паспорт, деньги, контрабандное ожерелье и теперь они вынуждены поневоле продолжить знакомство. И Люк, взявшись помочь Кейт вернуть жениха, обучает ее чисто французскому искусству обольщения. Очень хорошо усвоив уроки, Кейт возвращает себе Чарли. Но проблема в том, что он ей уже больше не нужен. Ей нужен Люк.



Страна: США, Великобритания
Студия: 20th Century Fox Film Corporation, PolyGram Filmed Entertainment, Prufrock Pictures, Working Title Films
Продолжительность: 01:51:12
Перевод: Профессиональный многоголосый, профессиональный двухголосый, авторский

Качество: BDRip
Видео: XviD, 2017 Кбит/с, 720x304, 23.976 кадр/с
Перевод #1: (AC3, 2 ch, 192 Кбит/с) Профессиональный (многоголосый, закадровый) ОРТ
Перевод #2: (AC3, 2 ch, 192 Кбит/с) Профессиональный (многоголосый, закадровый) ТВ-Центр
Перевод #3: (AC3, 2 ch, 192 Кбит/с) Профессиональный (двухголосый, закадровый) Екатеринбург-Арт
Перевод #4: (AC3, 2 ch, 192 Кбит/с) Профессиональный (двухголосый, закадровый) НТВ+
General
Complete name : H:ФильмыФранцузский.поцелуй.1995.BDRip.2хПМ.2хПД.avi
Format : AVI
Format/Info : Audio Video Interleave
Format profile : OpenDML
File size : 2.19 GiB
Duration : 1 h 51 min
Overall bit rate : 2 816 kb/s
Movie name : Французский поцелуй / French Kiss (1995) BDRip
Director : sociolog_melvas
Genre : драма, мелодрама, комедия
Writing application : VirtualDubMod 1.5.10.2 (build 2542/release)
Writing library : VirtualDubMod build 2542/release
Copyright : http://hqclub.net/
Comment : 28.02.2013

Video
ID : 0
Format : MPEG-4 Visual
Format profile : Advanced Simple@L5
Format settings : BVOP1 / Custom Matrix
Format settings, BVOP : 1
Format settings, QPel : No
Format settings, GMC : No warppoints
Format settings, Matrix : Custom
Codec ID : XVID
Codec ID/Hint : XviD
Duration : 1 h 51 min
Bit rate : 2 017 kb/s
Width : 720 pixels
Height : 304 pixels
Display aspect ratio : 2.35:1
Frame rate : 23.976 (24000/1001) FPS
Color space : YUV
Chroma subsampling : 4:2:0
Bit depth : 8 bits
Scan type : Progressive
Compression mode : Lossy
Bits/(Pixel*Frame) : 0.384
Stream size : 1.57 GiB (72%)
Writing library : XviD 65

Audio #1
ID : 1
Format : AC-3
Format/Info : Audio Coding 3
Codec ID : 2000
Duration : 1 h 51 min
Bit rate mode : Constant
Bit rate : 192 kb/s
Channel(s) : 2 channels
Channel positions : Front: L R
Sampling rate : 48.0 kHz
Frame rate : 31.250 FPS (1536 SPF)
Bit depth : 16 bits
Compression mode : Lossy
Stream size : 153 MiB (7%)
Alignment : Split accross interleaves
Interleave, duration : 42 ms (1.00 video frame)
Interleave, preload duration : 500 ms
Service kind : Complete Main

Audio #2
ID : 2
Format : AC-3
Format/Info : Audio Coding 3
Codec ID : 2000
Duration : 1 h 51 min
Bit rate mode : Constant
Bit rate : 192 kb/s
Channel(s) : 2 channels
Channel positions : Front: L R
Sampling rate : 48.0 kHz
Frame rate : 31.250 FPS (1536 SPF)
Bit depth : 16 bits
Compression mode : Lossy
Stream size : 153 MiB (7%)
Alignment : Split accross interleaves
Interleave, duration : 42 ms (1.00 video frame)
Interleave, preload duration : 500 ms
Service kind : Complete Main

Audio #3
ID : 3
Format : AC-3
Format/Info : Audio Coding 3
Codec ID : 2000
Duration : 1 h 51 min
Bit rate mode : Constant
Bit rate : 192 kb/s
Channel(s) : 2 channels
Channel positions : Front: L R
Sampling rate : 48.0 kHz
Frame rate : 31.250 FPS (1536 SPF)
Bit depth : 16 bits
Compression mode : Lossy
Stream size : 153 MiB (7%)
Alignment : Split accross interleaves
Interleave, duration : 42 ms (1.00 video frame)
Interleave, preload duration : 500 ms
Service kind : Complete Main

Audio #4
ID : 4
Format : AC-3
Format/Info : Audio Coding 3
Codec ID : 2000
Duration : 1 h 51 min
Bit rate mode : Constant
Bit rate : 192 kb/s
Channel(s) : 2 channels
Channel positions : Front: L R
Sampling rate : 48.0 kHz
Frame rate : 31.250 FPS (1536 SPF)
Bit depth : 16 bits
Compression mode : Lossy
Stream size : 153 MiB (7%)
Alignment : Split accross interleaves
Interleave, duration : 42 ms (1.00 video frame)
Interleave, preload duration : 500 ms
Service kind : Complete Main



Скачать Французский.поцелуй.French.Kiss.(Лоуренс.Кэздан).[1995.драма.мелодрама.комедия.BDRip].[MVO]x2+[DVO]x2+[AVO].torrent без регистрации
Золото ЗОЛОТАЯ РАЗДАЧА! СКАЧАННОЕ НЕ ЗАСЧИТЫВАЕТСЯ! Золото
Дата: Зарегистрирован   [ Тип: внутренний ] Как тут cкачать?
MAGNET ссылка
MAGNET ссылка


Скачать .torrent

12 KB

Статус: проверено DHT
Скачан: торрент - 55 раз, раздача полностью - 4 раз
Размер: 2,19 GB
Оценка:  - (Голосов: 0)
Поблагодарили: 1
Поделиться ссылкой на эту раздачу с друзьями:
В контактеFacebookОдноклассникиTwitterLivejournalМой МирLiveinternet
 

 
Показать сообщения:    


Вы не можете начинать темы
Вы не можете отвечать на сообщения
Вы не можете редактировать свои сообщения
Вы не можете удалять свои сообщения
Вы не можете голосовать в опросах
Вы не можете прикреплять файлы к сообщениям
Вы можете скачивать файлы