Loading...
Error

Скачать Французский поцелуй / French Kiss (Лоуренс Кэздан) [1995, драма, мелодрама, комедия, BDRip] [1080p] [MVO]x2+[DVO]x2+[AVO]x2+[Оригинал Eng]+[Sub Eng] торрент без регистрации

Статистика раздачи
Размер:  11,98 GB   |    Скачан:  42 раза
Сидов:  1  [  0 KB/s  ]  
 
 
 
Автор Сообщение

Marsianka

[] 

Название: Французский поцелуй
Оригинальное название: French Kiss
Год выхода: 1995
Жанр: драма, мелодрама, комедия
Режиссер: Лоуренс Кэздан
В ролях: Мег Райан, Кевин Клайн, Тимоти Хаттон, Жан Рено, Франсуа Клюзе, Рени Хамфри, Майкл Райли, Элизабет Коммелин, Сьюзан Анбех, Лорен Шпильфогель, Виктор Гарривье, Микель Браун, Луиз Дешам, Клаудио Тодесчини, Джерри Харт, Джоэнна Павлис, Барбара Шульц, Клеман Сибони, Адам Брукс, Филипп Гарнье, Жан Корсо, Майк Джонс, Мари-Кристин Адам, Фаусто Костантино, Доминик Ренье, Инге Офферман, Николас Хоутри, Вольфганг Писсорс, Никола Оберманн, Дороти Пикард, Жан Эллейн

О фильме: Когда ее жених Чарли влюбляется в другую, Кейт отправляется на его поиски. В самолете она знакомится с загадочным, очаровательным французом Люком, который оказывается контрабандистом, подложившим ей в сумочку дорогое ожерелье, чтобы пройти таможню. Но Кейт потеряла все - паспорт, деньги, контрабандное ожерелье и теперь они вынуждены поневоле продолжить знакомство. И Люк, взявшись помочь Кейт вернуть жениха, обучает ее чисто французскому искусству обольщения. Очень хорошо усвоив уроки, Кейт возвращает себе Чарли. Но проблема в том, что он ей уже больше не нужен. Ей нужен Люк.



Страна: Великобритания, США
Студия: 20th Century Fox Film Corporation, PolyGram Filmed Entertainment, Prufrock Pictures, Working Title Films
Продолжительность: 01:51:13
Перевод: Профессиональный многоголосый, профессиональный двухголосый, авторский

Кодек: x.264
Качество: BDRip (1080p)
Видео: MPEG-4 AVC, 12.3 Мбит/с, 1920x814, 23.976 кадр/с
Аудио #1: (AC3, 2 ch, 192 Кбит/с) Профессиональный (многоголосый, закадровый) ОРТ
Аудио #2: (AC3, 2 ch, 192 Кбит/с) Профессиональный (многоголосый, закадровый) ТВ-Центр
Аудио #3: (AC3, 2 ch, 192 Кбит/с) Профессиональный (двухголосый, закадровый) Екатеринбург-Арт
Аудио #4: (AC3, 2 ch, 192 Кбит/с) Профессиональный (двухголосый, закадровый) НТВ+
Аудио #5: (AC3, 6 ch, 384 Кбит/с) Авторский (одноголосый, закадровый) Юрий Живов
Аудио #6: (AC3, 2 ch, 192 Кбит/с) Авторский (одноголосый, закадровый) Пётр Карцев
Аудио #7: (DTS, 6 ch, 1509 Кбит/с) Оригинал (английский)

Субтитры: Английские
General
Unique ID : 180715917911242342827317567624213511131 (0x87F49EA976001B51AB47FC6C8D353BDB)
Complete name : G:HD VideoФранцузский.поцелуй.1995.BDRip.1080p.2хПМ.2хПД.2хАП.mkv
Format : Matroska
Format version : Version 2
File size : 12.0 GiB
Duration : 1 h 51 min
Overall bit rate : 15.4 Mb/s
Movie name : Rip by msltel
Encoded date : UTC 2018-03-27 18:48:20
Writing application : mkvmerge v4.1.1 ('Bouncin' Back') сборка от Jul 3 2010 22:54:08
Writing library : libebml v1.0.0 + libmatroska v1.0.0

Video
ID : 1
Format : AVC
Format/Info : Advanced Video Codec
Format profile : High@L4.1
Format settings : CABAC / 4 Ref Frames
Format settings, CABAC : Yes
Format settings, ReFrames : 4 frames
Codec ID : V_MPEG4/ISO/AVC
Duration : 1 h 51 min
Bit rate : 12.3 Mb/s
Width : 1 920 pixels
Height : 814 pixels
Display aspect ratio : 2.35:1
Frame rate mode : Constant
Frame rate : 23.976 (24000/1001) FPS
Color space : YUV
Chroma subsampling : 4:2:0
Bit depth : 8 bits
Scan type : Progressive
Bits/(Pixel*Frame) : 0.327
Stream size : 9.52 GiB (80%)
Writing library : x264 core 146 r2538 121396c
Encoding settings : cabac=1 / ref=4 / deblock=1:-3:-2 / analyse=0x3:0x113 / me=umh / subme=11 / psy=1 / psy_rd=1.00:0.15 / mixed_ref=1 / me_range=32 / chroma_me=1 / trellis=2 / 8x8dct=1 / cqm=0 / deadzone=21,11 / fast_pskip=0 / chroma_qp_offset=-3 / threads=6 / lookahead_threads=1 / sliced_threads=0 / nr=0 / decimate=1 / interlaced=0 / bluray_compat=0 / constrained_intra=0 / bframes=7 / b_pyramid=2 / b_adapt=2 / b_bias=0 / direct=1 / weightb=1 / open_gop=0 / weightp=2 / keyint=230 / keyint_min=23 / scenecut=40 / intra_refresh=0 / rc_lookahead=40 / rc=crf / mbtree=0 / crf=17.7 / qcomp=0.60 / qpmin=0 / qpmax=69 / qpstep=4 / vbv_maxrate=62500 / vbv_bufsize=78125 / crf_max=0.0 / nal_hrd=none / filler=0 / ip_ratio=1.40 / pb_ratio=1.30 / aq=1:1.00
Language : English
Default : Yes
Forced : No
Statistics Tags Issue : mkvmerge v8.2.0 ('World of Adventure') 64bit 2018-01-29 02:14:40 / mkvmerge v4.1.1 ('Bouncin' Back') сборка от Jul 3 2010 22:54:08 2018-03-27 18:48:20
FromStats_BitRate : 12570094
FromStats_Duration : 01:51:13.042000000
FromStats_FrameCount : 159993
FromStats_StreamSize : 10485096142

Audio #1
ID : 2
Format : AC-3
Format/Info : Audio Coding 3
Muxing mode : Header stripping
Codec ID : A_AC3
Duration : 1 h 51 min
Bit rate mode : Constant
Bit rate : 192 kb/s
Channel(s) : 2 channels
Channel positions : Front: L R
Sampling rate : 48.0 kHz
Frame rate : 31.250 FPS (1536 SPF)
Bit depth : 16 bits
Compression mode : Lossy
Stream size : 153 MiB (1%)
Title : ПМ (Первый канал)
Language : Russian
Service kind : Complete Main
Default : Yes
Forced : No
Statistics Tags Issue : mkvmerge v8.2.0 ('World of Adventure') 64bit 2018-01-29 02:14:40 / mkvmerge v4.1.1 ('Bouncin' Back') сборка от Jul 3 2010 22:54:08 2018-03-27 18:48:20
FromStats_BitRate : 192000
FromStats_Duration : 01:51:13.056000000
FromStats_FrameCount : 208533
FromStats_StreamSize : 160153344

Audio #2
ID : 3
Format : AC-3
Format/Info : Audio Coding 3
Muxing mode : Header stripping
Codec ID : A_AC3
Duration : 1 h 51 min
Bit rate mode : Constant
Bit rate : 192 kb/s
Channel(s) : 2 channels
Channel positions : Front: L R
Sampling rate : 48.0 kHz
Frame rate : 31.250 FPS (1536 SPF)
Bit depth : 16 bits
Compression mode : Lossy
Stream size : 153 MiB (1%)
Title : ПМ (ТВЦ)
Language : Russian
Service kind : Complete Main
Default : No
Forced : No

Audio #3
ID : 4
Format : AC-3
Format/Info : Audio Coding 3
Muxing mode : Header stripping
Codec ID : A_AC3
Duration : 1 h 51 min
Bit rate mode : Constant
Bit rate : 192 kb/s
Channel(s) : 2 channels
Channel positions : Front: L R
Sampling rate : 48.0 kHz
Frame rate : 31.250 FPS (1536 SPF)
Bit depth : 16 bits
Compression mode : Lossy
Stream size : 153 MiB (1%)
Title : ПД (Екатеринбург-Арт)
Language : Russian
Service kind : Complete Main
Default : No
Forced : No
Statistics Tags Issue : mkvmerge v8.2.0 ('World of Adventure') 64bit 2018-01-29 02:14:40 / mkvmerge v4.1.1 ('Bouncin' Back') сборка от Jul 3 2010 22:54:08 2018-03-27 18:48:20
FromStats_BitRate : 192000
FromStats_Duration : 01:51:13.056000000
FromStats_FrameCount : 208533
FromStats_StreamSize : 160153344

Audio #4
ID : 5
Format : AC-3
Format/Info : Audio Coding 3
Muxing mode : Header stripping
Codec ID : A_AC3
Duration : 1 h 51 min
Bit rate mode : Constant
Bit rate : 192 kb/s
Channel(s) : 2 channels
Channel positions : Front: L R
Sampling rate : 48.0 kHz
Frame rate : 31.250 FPS (1536 SPF)
Bit depth : 16 bits
Compression mode : Lossy
Stream size : 153 MiB (1%)
Title : ПД (НТВ+)
Language : Russian
Service kind : Complete Main
Default : No
Forced : No

Audio #5
ID : 6
Format : AC-3
Format/Info : Audio Coding 3
Muxing mode : Header stripping
Codec ID : A_AC3
Duration : 1 h 51 min
Bit rate mode : Constant
Bit rate : 384 kb/s
Channel(s) : 6 channels
Channel positions : Front: L C R, Side: L R, LFE
Sampling rate : 48.0 kHz
Frame rate : 31.250 FPS (1536 SPF)
Bit depth : 16 bits
Compression mode : Lossy
Stream size : 305 MiB (2%)
Title : АП (Юрий Живов)
Language : Russian
Service kind : Complete Main
Default : No
Forced : No

Audio #6
ID : 7
Format : AC-3
Format/Info : Audio Coding 3
Muxing mode : Header stripping
Codec ID : A_AC3
Duration : 1 h 51 min
Bit rate mode : Constant
Bit rate : 192 kb/s
Channel(s) : 2 channels
Channel positions : Front: L R
Sampling rate : 48.0 kHz
Frame rate : 31.250 FPS (1536 SPF)
Bit depth : 16 bits
Compression mode : Lossy
Stream size : 153 MiB (1%)
Title : АП (Пётр Карцев)
Language : Russian
Service kind : Complete Main
Default : No
Forced : No

Audio #7
ID : 8
Format : DTS
Format/Info : Digital Theater Systems
Muxing mode : Header stripping
Codec ID : A_DTS
Duration : 1 h 51 min
Bit rate mode : Constant
Bit rate : 1 509 kb/s
Channel(s) : 6 channels
Channel positions : Front: L C R, Side: L R, LFE
Sampling rate : 48.0 kHz
Frame rate : 93.750 FPS (512 SPF)
Bit depth : 24 bits
Compression mode : Lossy
Delay relative to video : 11 ms
Stream size : 1.17 GiB (10%)
Title : Оригинал
Language : English
Default : No
Forced : No
Statistics Tags Issue : mkvmerge v8.2.0 ('World of Adventure') 64bit 2018-01-29 02:14:40 / mkvmerge v4.1.1 ('Bouncin' Back') сборка от Jul 3 2010 22:54:08 2018-03-27 18:48:20
FromStats_BitRate : 1508999
FromStats_Duration : 01:51:13.046000000
FromStats_FrameCount : 625598
FromStats_StreamSize : 1258703244

Text
ID : 9
Format : UTF-8
Codec ID : S_TEXT/UTF8
Codec ID/Info : UTF-8 Plain Text
Title : английские
Language : English
Default : No
Forced : No
Statistics Tags Issue : mkvmerge v8.2.0 ('World of Adventure') 64bit 2018-01-29 02:14:40 / mkvmerge v4.1.1 ('Bouncin' Back') сборка от Jul 3 2010 22:54:08 2018-03-27 18:48:20
FromStats_BitRate : 60
FromStats_Duration : 01:50:26.077000000
FromStats_FrameCount : 2101
FromStats_StreamSize : 49828

Menu
00:00:00.000 : :Chapter 01
00:07:55.641 : :Chapter 02
00:10:00.266 : :Chapter 03
00:15:53.410 : :Chapter 04
00:21:43.844 : :Chapter 05
00:24:15.704 : :Chapter 06
00:30:33.164 : :Chapter 07
00:35:13.152 : :Chapter 08
00:39:37.500 : :Chapter 09
00:44:16.570 : :Chapter 10
00:50:25.147 : :Chapter 11
00:56:33.431 : :Chapter 12
01:01:14.170 : :Chapter 13
01:06:08.296 : :Chapter 14
01:13:22.106 : :Chapter 15
01:17:17.256 : :Chapter 16
01:21:08.280 : :Chapter 17
01:27:26.823 : :Chapter 18
01:34:28.162 : :Chapter 19
01:38:29.278 : :Chapter 20
01:42:53.584 : :Chapter 21
01:44:41.942 : :Chapter 22
01:51:12.791 : :Chapter 23



Скачать Французский.поцелуй.French.Kiss.(Лоуренс.Кэздан).[1995.драма.мелодрама.комедия.BDRip].[1080p].[MVO]x2+[DVO]x2+[AVO]x2+[Оригинал.Eng]+[Sub.Eng].torrent без регистрации
Золото ЗОЛОТАЯ РАЗДАЧА! СКАЧАННОЕ НЕ ЗАСЧИТЫВАЕТСЯ! Золото
Дата: Зарегистрирован   [ Тип: внутренний ] Как тут cкачать?
MAGNET ссылка
MAGNET ссылка


Скачать .torrent

31 KB

Статус: проверено DHT
Скачан: торрент - 42 раз, раздача полностью - 2 раз
Размер: 11,98 GB
Оценка:  - (Голосов: 0)
Поблагодарили: 0
Поделиться ссылкой на эту раздачу с друзьями:
В контактеFacebookОдноклассникиTwitterLivejournalМой МирLiveinternet
 

 
Показать сообщения:    


Вы не можете начинать темы
Вы не можете отвечать на сообщения
Вы не можете редактировать свои сообщения
Вы не можете удалять свои сообщения
Вы не можете голосовать в опросах
Вы не можете прикреплять файлы к сообщениям
Вы можете скачивать файлы