Loading...
Error

Скачать 20 декабря (Григорий Никулин) [1981, историко-революционный, SATRip-AVC] торрент без регистрации

Статистика раздачи
Размер:  7,03 GB   |    Скачан:  42 раза
Сидов:  6  [  0 KB/s  ]  
 
 
 
Автор Сообщение

Marsianka

[] 

20 декабря


Страна: СССР
Жанр: историко-революционный
Год выпуска: 1981
Продолжительность: 01:04:49 + 01:04:22 + 01:02:46 + 01:03:34
Перевод: Не требуется
Режиссер: Григорий Никулин
В ролях: Кирилл Лавров, Михаил Козаков, Сергей Юрский, Владимир Дюков-Самарский, Андрей Толубеев,
Игорь Комаров, Владимир Свекольников, Виктор (Вилли) Бурхарт, Виктор Костецкий, Эрнст Романов,
Владимир Головин, Эммануил Виторган, Сергей Десницкий, Геннадий Бортников, Владимир Эренберг, Лев Иванов,
Вадим Ермолаев, Николай Крюков, Николай Мартон, Анатолий Рудаков, Георгий Дрозд

Описание: Фильм посвящается первым чекистам и снят по сценарию Юлиана Семёнова. 1917 год.
Время смятений - "военная диктатура".
Для организации порядка в стране и борьбы с контрреволюцией и саботажем создана ВЧК, будущее КГБ...

1-я серия - "Военная диктатура?.."
2-я серия - "Саботаж"
3-я серия - "Террор"
4-я серия - "ВЧК"



Кодек: х264
Качество: SATRip-AVC
Видео: MPEG-4 AVC, (1,2) 690х568@752x568, (3,4) 688х568@734x568, 25 fps, 3500-4000 Кбит/с
Аудио: АС3, 2h, 192 Кбит/с
Субтитры: Нет

x264 [info]: frame I:504 Avg QP:18.46 size: 81514
x264 [info]: frame P:20338 Avg QP:20.79 size: 43897
x264 [info]: frame B:76386 Avg QP:22.21 size: 10049

Общее
Уникальный идентификатор : 207210810376229363778536650557075330667 (0x9BE359B71E9AAB058A4BF3BC46C5966B)
Полное имя : I:ссср20 декабря20 декабря 1 серия 1981_SATRip-AVC_KORSAR.mkv
Формат : Matroska
Версия формата : Version 2
Размер файла : 1,67 Гбайт
Продолжительность : 1 ч. 4 м.
Общий поток : 3694 Кбит/сек
Дата кодирования : UTC 2018-04-06 00:17:51
Программа кодирования : mkvmerge v5.8.0 ('No Sleep / Pillow') built on Sep 2 2012 15:37:04
Библиотека кодирования : libebml v1.2.3 + libmatroska v1.3.0

Видео
Идентификатор : 1
Формат : AVC
Формат/Информация : Advanced Video Codec
Профиль формата : High@L4.1
Настройки формата : CABAC / 15 Ref Frames
Параметр CABAC формата : Да
Параметр RefFrames формата : 15 кадров
Идентификатор кодека : V_MPEG4/ISO/AVC
Продолжительность : 1 ч. 4 м.
Битрейт : 3500 Кбит/сек
Ширина : 690 пикселей
Высота : 568 пикселей
Соотношение сторон : 4:3
Соотношение сторон в оригинале : 4:3
Режим частоты кадров : Постоянный
Частота кадров : 25,000 кадров/сек
Цветовое пространство : YUV
Субдискретизация насыщенности : 4:2:0
Битовая глубина : 8 бит
Тип развёртки : Прогрессивная
Бит/(Пиксели*Кадры) : 0.357
Размер потока : 1,55 Гбайт (93%)
Библиотека кодирования : x264 core 152 r2851kMod ba24899
Настройки программы : cabac=1 / ref=15 / deblock=1:-2:-2 / analyse=0x3:0x133 / me=umh / subme=11 / psy=1 / fade_compensate=0.00 / psy_rd=1.05:0.10 / mixed_ref=1 / me_range=48 / chroma_me=1 / trellis=2 / 8x8dct=1 / cqm=0 / deadzone=21,11 / fast_pskip=0 / chroma_qp_offset=-3 / threads=12 / lookahead_threads=2 / sliced_threads=0 / nr=0 / decimate=0 / interlaced=0 / bluray_compat=0 / constrained_intra=0 / bframes=8 / b_pyramid=2 / b_adapt=2 / b_bias=0 / direct=3 / weightb=1 / open_gop=0 / weightp=2 / keyint=250 / keyint_min=25 / scenecut=40 / intra_refresh=0 / rc_lookahead=40 / rc=2pass / mbtree=0 / bitrate=3500 / ratetol=1.0 / qcomp=0.60 / qpmin=0 / qpmax=39 / qpstep=4 / cplxblur=20.0 / qblur=0.5 / vbv_maxrate=50000 / vbv_bufsize=62500 / nal_hrd=none / filler=0 / ip_ratio=1.25 / pb_ratio=1.30 / aq=1:1.00
Язык : English
Default : Да
Forced : Нет
Цветовой диапазон : Limited
Основные цвета : BT.601 PAL
Характеристики трансфера : BT.470 System B, BT.470 System G
Коэффициенты матрицы : BT.470 System B, BT.470 System G

Аудио
Идентификатор : 2
Формат : AC-3
Формат/Информация : Audio Coding 3
Параметр Endianness формата : Big
Идентификатор кодека : A_AC3
Продолжительность : 1 ч. 4 м.
Вид битрейта : Постоянный
Битрейт : 192 Кбит/сек
Каналы : 2 канала
Расположение каналов : Front: L R
Частота : 48,0 КГц
Частота кадров : 31,250 кадров/сек (1536 SPF)
Битовая глубина : 16 бит
Метод сжатия : С потерями
Задержка видео : 16 мс.
Размер потока : 89,0 Мбайт (5%)
Язык : Russian
Default : Да
Forced : Нет



Скачать 20.декабря.(Григорий.Никулин).[1981.историко-революционный.SATRip-AVC].torrent без регистрации
Золото ЗОЛОТАЯ РАЗДАЧА! СКАЧАННОЕ НЕ ЗАСЧИТЫВАЕТСЯ! Золото
Дата: Зарегистрирован   [ Тип: внешний ] Как тут cкачать?
MAGNET ссылка
MAGNET ссылка


Скачать .torrent

36 KB

Статус: проверено DHT
Скачан: торрент - 42 раз, раздача полностью - 4 раз
Размер: 7,03 GB
Оценка:  - (Голосов: 0)
Поблагодарили: 0
Поделиться ссылкой на эту раздачу с друзьями:
В контактеFacebookОдноклассникиTwitterLivejournalМой МирLiveinternet
 

 
Показать сообщения:    


Вы не можете начинать темы
Вы не можете отвечать на сообщения
Вы не можете редактировать свои сообщения
Вы не можете удалять свои сообщения
Вы не можете голосовать в опросах
Вы не можете прикреплять файлы к сообщениям
Вы можете скачивать файлы