Loading...
Error

Скачать Особенности национальной рыбалки (Александр Рогожкин) [1998, комедия, DVDRip-AVC] торрент без регистрации

Статистика раздачи
Размер:  2,61 GB   |    Скачан:  41 раз
Сидов:  5  [  0 KB/s  ]  
 
 
 
Автор Сообщение

Marsianka

[] 

Особенности национальной рыбалки


Страна: Россия
Жанр: комедия
Год выпуска: 1998
Продолжительность: 01:34:00
Перевод: Не требуется
Режиссер: Александр Рогожкин
В ролях: Алексей Булдаков, Алексей Севастьянов, Андрей Краско, Василий Домрачев, Виктор Бычков, Виллэ Хаапасало, Семен Стругачев, Сергей Гусинский, Сергей Русскин и др.

Описание: Герои фильма "Особенности национальной охоты" решили вместо охоты - порыбачить. Ну и выпить немного...



Кодек: х264
Качество: DVDRip-AVC
Видео: MPEG-4 AVC, 686х452@732x452, 25 fps, 3500 Кбит/с
Аудио: АС3, 6h, 448 Кбит/с
Субтитры: Нет
Главы: Есть

x264 [info]: frame I:823 Avg QP:17.03 size: 80113
x264 [info]: frame P:34803 Avg QP:19.42 size: 36508
x264 [info]: frame B:106500 Avg QP:21.25 size: 10801

Общее
Уникальный идентификатор : 185398035809024804526428861021404732660 (0x8B7A5CE5AC0D4C2F8C973F47C4CF1CF4)
Полное имя : H:Наше современное киноОсобенности национальной рыбалки 1998_DVDRip-AVC_KORSAR.mkv
Формат : Matroska
Версия формата : Version 2
Размер файла : 2,61 Гбайт
Продолжительность : 1 ч. 34 м.
Общий поток : 3949 Кбит/сек
Дата кодирования : UTC 2018-04-10 19:59:24
Программа кодирования : mkvmerge v5.8.0 ('No Sleep / Pillow') built on Sep 2 2012 15:37:04
Библиотека кодирования : libebml v1.2.3 + libmatroska v1.3.0

Видео
Идентификатор : 1
Формат : AVC
Формат/Информация : Advanced Video Codec
Профиль формата : High@L4.1
Настройки формата : CABAC / 15 Ref Frames
Параметр CABAC формата : Да
Параметр RefFrames формата : 15 кадров
Идентификатор кодека : V_MPEG4/ISO/AVC
Продолжительность : 1 ч. 34 м.
Битрейт : 3500 Кбит/сек
Ширина : 686 пикселей
Высота : 452 пикселя
Соотношение сторон : 16:10
Соотношение сторон в оригинале : 16:10
Режим частоты кадров : Постоянный
Частота кадров : 25,000 кадров/сек
Цветовое пространство : YUV
Субдискретизация насыщенности : 4:2:0
Битовая глубина : 8 бит
Тип развёртки : Прогрессивная
Бит/(Пиксели*Кадры) : 0.452
Размер потока : 2,27 Гбайт (87%)
Библиотека кодирования : x264 core 152 r2851kMod ba24899
Настройки программы : cabac=1 / ref=15 / deblock=1:-2:-2 / analyse=0x3:0x133 / me=umh / subme=11 / psy=1 / fade_compensate=0.00 / psy_rd=1.05:0.10 / mixed_ref=1 / me_range=48 / chroma_me=1 / trellis=2 / 8x8dct=1 / cqm=0 / deadzone=21,11 / fast_pskip=0 / chroma_qp_offset=-3 / threads=12 / lookahead_threads=2 / sliced_threads=0 / nr=0 / decimate=0 / interlaced=0 / bluray_compat=0 / constrained_intra=0 / bframes=9 / b_pyramid=2 / b_adapt=2 / b_bias=0 / direct=3 / weightb=1 / open_gop=0 / weightp=2 / keyint=250 / keyint_min=25 / scenecut=40 / intra_refresh=0 / rc_lookahead=40 / rc=2pass / mbtree=0 / bitrate=3500 / ratetol=1.0 / qcomp=0.60 / qpmin=0 / qpmax=39 / qpstep=4 / cplxblur=20.0 / qblur=0.5 / vbv_maxrate=50000 / vbv_bufsize=62500 / nal_hrd=none / filler=0 / ip_ratio=1.25 / pb_ratio=1.30 / aq=1:1.00
Язык : English
Default : Да
Forced : Нет
Цветовой диапазон : Limited
Основные цвета : BT.601 PAL
Характеристики трансфера : BT.470 System B, BT.470 System G
Коэффициенты матрицы : BT.470 System B, BT.470 System G

Аудио
Идентификатор : 2
Формат : AC-3
Формат/Информация : Audio Coding 3
Параметр Endianness формата : Big
Идентификатор кодека : A_AC3
Продолжительность : 1 ч. 34 м.
Вид битрейта : Постоянный
Битрейт : 448 Кбит/сек
Каналы : 6 каналов
Расположение каналов : Front: L C R, Side: L R, LFE
Частота : 48,0 КГц
Частота кадров : 31,250 кадров/сек (1536 SPF)
Битовая глубина : 16 бит
Метод сжатия : С потерями
Размер потока : 304 Мбайт (11%)
Язык : Russian
Default : Да
Forced : Нет

Меню
00:00:00.000 : en:Chapter 1
00:05:56.720 : en:Chapter 2
00:07:14.200 : en:Chapter 3
00:10:48.440 : en:Chapter 4
00:16:07.200 : en:Chapter 5
00:18:27.600 : en:Chapter 6
00:20:38.640 : en:Chapter 7
00:25:44.400 : en:Chapter 8
00:27:21.120 : en:Chapter 9
00:34:24.920 : en:Chapter 10
00:36:28.680 : en:Chapter 11
00:40:04.480 : en:Chapter 12
00:44:14.600 : en:Chapter 13
00:47:50.920 : en:Chapter 14
00:53:51.280 : en:Chapter 15
01:00:30.120 : en:Chapter 16
01:08:59.200 : en:Chapter 17
01:16:39.400 : en:Chapter 18
01:20:19.360 : en:Chapter 19
01:25:46.960 : en:Chapter 20
01:30:24.640 : en:Chapter 21
01:34:44.640 : en:Chapter 22



Скачать Особенности.национальной.рыбалки.(Александр.Рогожкин).[1998.комедия.DVDRip-AVC].torrent без регистрации
Золото ЗОЛОТАЯ РАЗДАЧА! СКАЧАННОЕ НЕ ЗАСЧИТЫВАЕТСЯ! Золото
Дата: Зарегистрирован   [ Тип: внешний ] Как тут cкачать?
MAGNET ссылка
MAGNET ссылка


Скачать .torrent

14 KB

Статус: проверено DHT
Скачан: торрент - 41 раз, раздача полностью - 4 раз
Размер: 2,61 GB
Оценка:  - (Голосов: 0)
Поблагодарили: 1
Поделиться ссылкой на эту раздачу с друзьями:
В контактеFacebookОдноклассникиTwitterLivejournalМой МирLiveinternet
 

 
Показать сообщения:    


Вы не можете начинать темы
Вы не можете отвечать на сообщения
Вы не можете редактировать свои сообщения
Вы не можете удалять свои сообщения
Вы не можете голосовать в опросах
Вы не можете прикреплять файлы к сообщениям
Вы можете скачивать файлы