Loading...
Error

Скачать Телохранитель / The Bodyguard (Мик Джексон) [1992, Триллер, драма, мелодрама, музыка, BDRip][1080p] [DUB Лицензия] [R.G. GoldenShara] торрент без регистрации

Статистика раздачи
Размер:  4,37 GB   |    Скачан:  68 раз
Сидов:  2  [  0 KB/s  ]  
 
 
 
Автор Сообщение

Magnetto83

[] 


Телохранитель / The Bodyguard


Год выпуска: 1992
Выпущено: США | Kasdan Pictures, Tig Productions, Warner Bros
Жанр: Триллер, драма, мелодрама, музыка
Продолжительность: 02:09:20
Перевод: Профессиональный (полное дублирование)
Субтитры: Русские (Полные), Английские (Full)

Режиссер: Мик Джексон

В ролях: Кевин Костнер, Уитни Хьюстон, Гари Кемп, Билл Коббс, Ральф Уэйт, Томас Арана, Мишель Ламар Ричардс, Майк Старр, Кристофер Бирт, Девон Никсон, Джерри Бэммен, Джо Урла, Тони Пирс, Чарльз Китинг, Роберт Вул, Дебби Рейнолдс, Дэнни Камин, Ричард Шифф, Крис Коннелли, Натаниель Паркер, Берт Ремсен, Дональд Хоттон, Нита Уайтакер, Патриция Хили, Роб Салливан, Стивен Шеллен, Виктория Басс, Эбби Вайн, Джо Хесс, Марта Веласко, Джо Ангер, Сьюзен Трейлор, Пэт Ван Паттен, Шелли А. Хилл, Эми Лу Демпси, Рози Ли Хукс, Кен Майлс, Роберт Л. Фейст, Чарльз Базалдуа, Дуглас Прайс, Эллин Ла Вар, Роллин Джарретт

Описание: Фрэнк Фармер, сотрудник службы безопасности президента Рейгана, чувствует себя отчасти виновным в том, что в его отсутствие на президента было совершено покушение. Он покидает службу и за большой гонорар, но все же нехотя, нанимается телохранителем чернокожей певицы и актрисы Рэйчел Мэррон, которая постоянно получает письма с угрозами. Первоначальная антипатия, возникшая между ними, постепенно перерастает в любовь. Сложившаяся ситуация мешает телохранителю исполнять свой профессиональный долг, что приводит к частым конфликтам между Фрэнком и Рэйчел…



Возраст: 18+ (зрителям, достигшим 18 лет. запрещено для детей)
Рейтинг MPAA: R (лицам до 17 лет обязательно присутствие взрослого)

Качество: BDRip 1080p
Формат: MKV
Видео кодек: H.264
Аудио кодек: AC3
Видео: 1920x1036 (16:9), 4620 kbps, 23.976 fps
Аудио 1: Русский Dolby Digital 5.1 (448 Кбит/с)


x264 [info]: frame I:1919 Avg QP:17.08 size:153283
x264 [info]: frame P:46645 Avg QP:20.32 size: 45869
x264 [info]: frame B:122700 Avg QP:22.70 size: 15114
x264 [info]: consecutive B-frames: 4.9% 9.1% 8.3% 36.8% 12.2% 19.0% 4.2% 4.8% 0.5%
x264 [total]: encoded 171264 frames, 1.38 fps, 4802.57 kb/s



General
Complete name : M:\Фильмы (Не удалять)\Мои Рипы (Не выложенные)\Телохранитель 1992 Dub Rus BDRip 1080p.mkv
Format : Matroska
Format version : Version 4 / Version 2
File size : 4.37 GiB
Duration : 2h 9mn
Overall bit rate : 4 834 Kbps
Movie name : Телохранитель 1992 Dub Rus BDRip 1080p R.G. GoldenShara
Encoded date : UTC 2018-04-13 12:24:08
Writing application : mkvmerge v7.8.0 ('River Man') 32bit built on Mar 27 2015 16:18:02
Writing library : libebml v1.3.1 + libmatroska v1.4.2
Attachements : Cover
DURATION : 02:03:52.967000000
NUMBER_OF_FRAMES : 1494
NUMBER_OF_BYTES : 50131
_STATISTICS_WRITING_APP : mkvmerge v7.8.0 ('River Man') 32bit built on Mar 27 2015 16:18:02
_STATISTICS_WRITING_DATE_UTC : 2018-04-13 12:24:08
_STATISTICS_TAGS : BPS DURATION NUMBER_OF_FRAMES NUMBER_OF_BYTES

Video
ID : 1
Format : AVC
Format/Info : Advanced Video Codec
Format profile : High@L4.1
Format settings, CABAC : Yes
Format settings, ReFrames : 4 frames
Codec ID : V_MPEG4/ISO/AVC
Duration : 2h 9mn
Bit rate : 4 385 Kbps
Width : 1 920 pixels
Height : 1 080 pixels
Display aspect ratio : 16:9
Frame rate mode : Constant
Frame rate : 23.976 fps
Color space : YUV
Chroma subsampling : 4:2:0
Bit depth : 8 bits
Scan type : Progressive
Bits/(Pixel*Frame) : 0.088
Stream size : 3.88 GiB (89%)
Title : Телохранитель 1992 BDRip 1080p By Magnetto 83
Writing library : x264 core 146 r2538 121396c
Encoding settings : cabac=1 / ref=4 / deblock=1:-1:-1 / analyse=0x3:0x113 / me=umh / subme=10 / psy=1 / psy_rd=1.00:0.00 / mixed_ref=1 / me_range=32 / chroma_me=1 / trellis=2 / 8x8dct=1 / cqm=0 / deadzone=21,11 / fast_pskip=0 / chroma_qp_offset=-2 / threads=3 / lookahead_threads=1 / sliced_threads=0 / nr=0 / decimate=1 / interlaced=0 / bluray_compat=0 / constrained_intra=0 / bframes=8 / b_pyramid=2 / b_adapt=2 / b_bias=0 / direct=3 / weightb=1 / open_gop=0 / weightp=2 / keyint=250 / keyint_min=23 / scenecut=40 / intra_refresh=0 / rc=2pass / mbtree=0 / bitrate=4385 / ratetol=1.0 / qcomp=0.60 / qpmin=0 / qpmax=69 / qpstep=4 / cplxblur=20.0 / qblur=0.5 / ip_ratio=1.40 / pb_ratio=1.30 / aq=2:1.00
Language : English
Default : Yes
Forced : No

Audio
ID : 2
Format : AC-3
Format/Info : Audio Coding 3
Mode extension : CM (complete main)
Format settings, Endianness : Big
Codec ID : A_AC3
Duration : 2h 9mn
Bit rate mode : Constant
Bit rate : 448 Kbps
Channel(s) : 6 channels
Channel positions : Front: L C R, Side: L R, LFE
Sampling rate : 48.0 KHz
Compression mode : Lossy
Stream size : 414 MiB (9%)
Title : DD 5.1 @ 448 Kbps - Дубляж | Blu-ray CEE |
Language : Russian
Default : Yes
Forced : No

Text #1
ID : 3
Format : UTF-8
Codec ID : S_TEXT/UTF8
Codec ID/Info : UTF-8 Plain Text
Title : Полные
Language : Russian
Default : No
Forced : No

Text #2
ID : 4
Format : UTF-8
Codec ID : S_TEXT/UTF8
Codec ID/Info : UTF-8 Plain Text
Title : Full
Language : English
Default : No
Forced : No

Menu
00:00:00.000 : en:On and off the job (Credits).
00:03:48.562 : en:Recruiting the best.
00:05:22.364 : en:My disguise; meeting the client.
00:12:46.307 : en:Fan letter ("I Have Nothing").
00:17:19.247 : en:The person who always gets hit.
00:19:35.132 : en:Precautions; the ego wall.
00:23:45.424 : en:Under surveillance.
00:26:13.697 : en:Strained relations.
00:30:11.476 : en:Run to You.
00:31:23.507 : en:A night out.
00:35:30.754 : en:Rachel's time ("Queen of the Night").
00:38:39.776 : en:Pandemonium.
00:42:08.067 : en:Playing with knives.
00:44:09.272 : en:Getting fixed up.
00:46:35.668 : en:A fan's trophies.
00:47:39.148 : en:Farmer's kind of date (Yojimbo clip).
00:51:51.692 : en:"I Will Always Love You" (John Doe); "I'll protect you."
00:54:09.121 : en:Sword's point; "I can't protect you like this."
01:01:46.077 : en:On the job in Miami (I Have Nothing).
01:04:40.418 : en:The party; an ex-colleague.
01:11:01.966 : en:Insecure.
01:14:17.912 : en:"I'm afraid."
01:17:41.115 : en:Country retreat; the Reagan thing.
01:20:55.017 : en:Dinner; next moves ("You didn't say no to the boss").
01:26:19.758 : en:Jesus Love Me; a saboteur doesn't.
01:30:13.033 : en:Confession in the dark.
01:34:01.010 : en:Shots in the dark.
01:36:18.898 : en:An arrest is made.
01:37:12.118 : en:Sorrow; "I'm afraid of not being there."
01:40:27.355 : en:"I have you to protect me."
01:43:40.464 : en:Arrival at the Oscars.
01:47:27.858 : en:Backstage reunion.
01:48:43.809 : en:"This is the night" ("I Have Nothing").
01:53:37.352 : en:"I know who it is."
01:56:02.956 : en:The winner takes the stage.
01:59:26.159 : en:Under control.
02:00:54.581 : en:"I Will Always Love You"
02:03:34.407 : en:Guiding and protecting; End Credits (Queen of the Night).







Скачать Телохранитель.The.Bodyguard.(Мик.Джексон).[1992.Триллер.драма.мелодрама.музыка.BDRip][1080p].[DUB.Лицензия].[R.G.GoldenShara].torrent без регистрации
Золото ЗОЛОТАЯ РАЗДАЧА! СКАЧАННОЕ НЕ ЗАСЧИТЫВАЕТСЯ! Золото
Дата: Зарегистрирован   [ Тип: внутренний ] Как тут cкачать?
MAGNET ссылка
MAGNET ссылка


Скачать .torrent

11 KB

Статус: проверено
Скачан: торрент - 68 раз, раздача полностью - 29 раз
Размер: 4,37 GB
Оценка:  5 (Голосов: 6)
Поблагодарили: 8
Поделиться ссылкой на эту раздачу с друзьями:
В контактеFacebookОдноклассникиTwitterLivejournalМой МирLiveinternet
 

 

raines

[] 

Спасибо за раздачу.
 

Aleksey76

[] 

Magnetto83 Дружище, Большое Спасибо Тебе!
 

Magnetto83

[] 

Пожалуйста! Обращайся! Всегда рад!!! :))))
 
Показать сообщения:    


Вы не можете начинать темы
Вы не можете отвечать на сообщения
Вы не можете редактировать свои сообщения
Вы не можете удалять свои сообщения
Вы не можете голосовать в опросах
Вы не можете прикреплять файлы к сообщениям
Вы можете скачивать файлы