Loading...
Error

Скачать Террор / The Terror (Сезон 01) (Милантс, Эдвард Бергер, Серджо Мимика-Геззан) [2018, Ужасы, драма, WEBRip] [1080p] [MVO] (FilmsClub) торрент без регистрации

Статистика раздачи
Размер:  31,15 GB   |    Скачан:  78 раз
Сидов:  1  [  0 KB/s  ]  
 
 
 
Автор Сообщение

leon030982

[] 


Террор / The Terror


Год выпуска: 2018
Жанр: Ужасы, драма
Страна: США
Студия: EMJAG Productions, Entertainment 360, Scott Free Productions
Продолжительность: 1 x ~ 00:45:00
Перевод: Профессиональный (многоголосый закадровый) [FilmsClub]
Субтитры: нет

Режиссер: Милантс, Эдвард Бергер, Серджо Мимика-Геззан

В ролях: Джаред Харрис, Киаран Хайндс, Тобайас Мензис, Крис Корригэн, Иэн Харт, Кристос Лоутон, Мэттью МакНалти, Адам Нагаитис, Нив Нилсен, Пол Рэди

О фильме:
В 1845 году экспедиция под командованием опытного полярного исследователя сэра Джона Франклина отправляется на судах «Террор» и «Эребус» к северному побережью Канады на поиск Северо-Западного прохода из Атлантического океана в Тихий — и бесследно исчезает. Поиски ее затянулись на несколько десятилетий, сведения о ее судьбе собирались буквально по крупицам, и до сих пор картина происшедшего пестрит белыми пятнами… Дэн Симмонс, знаменитый автор «Гипериона» и «Эндимиона», «Илиона» и «Олимпа», «Песни Кали» и «Темной игры смерти», предлагает свою версию событий: главную угрозу для экспедиции составляли не сокрушительные объятия льда, не стужа с вьюгой и не испорченные консервы — а неведомое исполинское чудовище, будто сотканное из снега и полярного мрака.



Файл
Формат: AVC
Качество: WEBRip 1080p
Видео: MPEG-4 AVC, ~ 7000 Кбит/с, 1920x1080
Аудио: 48 kHz, AC3, 6 ch, ~384 kbps - MVO
Аудио: 48 kHz, E-AC3, 6 ch, ~640 kbps - ENG
General
Unique ID : 174032950579048039023484488501753876758 (0x82ED86EEE9C3BFD28E77FABB11291116)
Complete name : F:\The.Terror.S01.1080p.WEB.H264-films.club\The.Terror.S01E01.1080p.WEB.H264-films.club.mkv
Format : Matroska
Format version : Version 4 / Version 2
File size : 2.69 GiB
Duration : 46 min 58 s
Overall bit rate mode : Variable
Overall bit rate : 8 186 kb/s
Encoded date : UTC 2018-04-01 19:26:33
Writing application : mkvmerge v18.0.0 ('Apricity') 64-bit
Writing library : libebml v1.3.5 + libmatroska v1.4.8

Video
ID : 1
Format : AVC
Format/Info : Advanced Video Codec
Format profile : High@L4
Format settings : CABAC / 4 Ref Frames
Format settings, CABAC : Yes
Format settings, RefFrames : 4 frames
Codec ID : V_MPEG4/ISO/AVC
Duration : 46 min 58 s
Bit rate mode : Variable
Bit rate : 6 999 kb/s
Maximum bit rate : 15.0 Mb/s
Width : 1 920 pixels
Height : 1 080 pixels
Display aspect ratio : 16:9
Frame rate mode : Constant
Frame rate : 23.976 (24000/1001) FPS
Color space : YUV
Chroma subsampling : 4:2:0
Bit depth : 8 bits
Scan type : Progressive
Bits/(Pixel*Frame) : 0.141
Stream size : 2.30 GiB (86%)
Language : English
Default : Yes
Forced : No
Color range : Limited
Color primaries : BT.709
Transfer characteristics : BT.709
Matrix coefficients : BT.709

Audio #1
ID : 2
Format : AC-3
Format/Info : Audio Coding 3
Format settings, Endianness : Big
Codec ID : A_AC3
Duration : 46 min 58 s
Bit rate mode : Constant
Bit rate : 384 kb/s
Channel(s) : 6 channels
Channel positions : Front: L C R, Side: L R, LFE
Sampling rate : 48.0 kHz
Frame rate : 31.250 FPS (1536 SPF)
Bit depth : 16 bits
Compression mode : Lossy
Stream size : 129 MiB (5%)
Title : films.club
Language : Russian
Service kind : Complete Main
Default : Yes
Forced : Yes

Audio #2
ID : 3
Format : E-AC-3
Format/Info : Enhanced Audio Coding 3
Format settings, Endianness : Big
Codec ID : A_EAC3
Duration : 46 min 58 s
Bit rate mode : Constant
Bit rate : 640 kb/s
Channel(s) : 6 channels
Channel positions : Front: L C R, Side: L R, LFE
Sampling rate : 48.0 kHz
Frame rate : 187.500 FPS (256 SPF)
Compression mode : Lossy
Stream size : 215 MiB (8%)
Language : English
Service kind : Complete Main
Default : No
Forced : No
Внимание! Раздача ведётся путём добавления новых серий; при каждом добавлении создаётся новый торрент. Чтобы начать докачку новой серии, пользователям необходимо сделать следующее:
(1) остановить скачивание,
(2) удалить старый торрент у себя из клиента (старые серии удалять не надо),
(3) скачать новый торрент и запустить его у себя в клиенте вместо старого, при этом указать клиенту путь в старую папку куда и должно происходить скачивание новых серий.
Ваш клиент при этом должен произвести хеширование (проверку) старой папки (если не производит сам - помогите ему сделать это), и будет докачивать только те серии которых у вас ещё нет. Старые серии при этом не удаляются, а продолжают раздаваться!
Eсли вы уже удалили старые серии, то предотвратить повторную закачку старых серий можно, отжав галочку в соответствующих местах при запуске нового торрента. По возможности, желательно не удалять старые серии как можно дольше чтобы релизёр не столько продолжал раздавать старые серии, а смог сконцентрироваться на новых.



Скачать Террор.The.Terror.(Сезон.01).(Милантс.Эдвард.Бергер.Серджо.Мимика-Геззан).[2018.Ужасы.драма.WEBRip].[1080p].[MVO].(FilmsClub).torrent без регистрации
Золото ЗОЛОТАЯ РАЗДАЧА! СКАЧАННОЕ НЕ ЗАСЧИТЫВАЕТСЯ! Золото
Дата: Зарегистрирован   [ Тип: внутренний ] Как тут cкачать?
MAGNET ссылка
MAGNET ссылка


Скачать .torrent

79 KB

Статус: проверено DHT
Скачан: торрент - 78 раз, раздача полностью - 5 раз
Размер: 31,15 GB
Оценка:  - (Голосов: 0)
Поблагодарили: 1
Поделиться ссылкой на эту раздачу с друзьями:
В контактеFacebookОдноклассникиTwitterLivejournalМой МирLiveinternet
 

 
Показать сообщения:    


Вы не можете начинать темы
Вы не можете отвечать на сообщения
Вы не можете редактировать свои сообщения
Вы не можете удалять свои сообщения
Вы не можете голосовать в опросах
Вы не можете прикреплять файлы к сообщениям
Вы можете скачивать файлы