Loading...
Error

Скачать Отель "У погибшего альпиниста" / Hukkunud Alpinisti hotell (Григорий Кроманов) [1979, фантастика, детектив, DVDRip-AVC] [Советский дубляж]+[Эстонский] торрент без регистрации

Статистика раздачи
Размер:  2,04 GB   |    Скачан:  39 раз
Сидов:  2  [  0 KB/s  ]  
 
 
 
Автор Сообщение

Marsianka

[] 

Отель "У погибшего альпиниста" / Hukkunud Alpinisti hotell


Страна: СССР
Студия: Таллин-Фильм
Жанр: фантастика, детектив
Год выпуска: 1979
Продолжительность: 01:20:19
Перевод: Профессиональный (дублированный) Ленфильм
Режиссер: Григорий Кроманов
В ролях: Улдис Пуцитис, Юри Ярвет, Лембит Петерсон, Микк Микивер, Карл Себрис, Сулев Луйк, Тийт Хярм, Нийоле Ожелите, Карин Райд, Ирена Криаузайте

Описание: По срочному вызову в отель "У погибшего альпиниста" приезжает инспектор Глебски. Немногочисленные постояльцы напуганы до смерти. Однако Глебски не обнаруживает никакого состава преступления. Снежная лавина отрезает ему путь в город. Инспектор остается в отеле и окaзывaeтcя в caмом цeнтpe шокирующих cобытий. Вскоре в одном из номеров он обнаруживает труп. Занимаясь поисками убийцы, инспектор постепенно откpывaeт для себя ужacныe тaйны, котоpыe хpaнит отeль…

Экранизация романа братьев Стругацких...



Кодек: х264
Качество: DVDRip-AVC
Видео: MPEG-4 AVC, 720х576@768x576, 25 fps, 3000 Кбит/с
Аудио: Русский, АС3, 6h, 448 Кбит/с (Советский дубляж)
Аудио: Эстонский, АС3, 2h, 192 Кбит/с
Субтитры: Нет
Главы: Есть

x264 [info]: frame I:650 Avg QP:17.13 size: 61610
x264 [info]: frame P:26449 Avg QP:18.82 size: 31931
x264 [info]: frame B:93376 Avg QP:20.99 size: 9879

Общее
Уникальный идентификатор : 208249681506760139749931736304477244273 (0x9CAB6E043F1EC58D9A839F02E5278B71)
Полное имя : I:сссрОтель у погибшего альпиниста 1979_DVDRip-AVC_KORSAR.mkv
Формат : Matroska
Версия формата : Version 2
Размер файла : 2,04 Гбайт
Продолжительность : 1 ч. 20 м.
Общий поток : 3642 Кбит/сек
Дата кодирования : UTC 2018-04-15 10:58:02
Программа кодирования : mkvmerge v5.8.0 ('No Sleep / Pillow') built on Sep 2 2012 15:37:04
Библиотека кодирования : libebml v1.2.3 + libmatroska v1.3.0

Видео
Идентификатор : 1
Формат : AVC
Формат/Информация : Advanced Video Codec
Профиль формата : High@L4.1
Настройки формата : CABAC / 15 Ref Frames
Параметр CABAC формата : Да
Параметр RefFrames формата : 15 кадров
Идентификатор кодека : V_MPEG4/ISO/AVC
Продолжительность : 1 ч. 20 м.
Битрейт : 3000 Кбит/сек
Ширина : 720 пикселей
Высота : 576 пикселей
Соотношение сторон : 4:3
Режим частоты кадров : Постоянный
Частота кадров : 25,000 кадров/сек
Стандарт вещания : PAL
Цветовое пространство : YUV
Субдискретизация насыщенности : 4:2:0
Битовая глубина : 8 бит
Тип развёртки : Прогрессивная
Бит/(Пиксели*Кадры) : 0.289
Размер потока : 1,64 Гбайт (80%)
Библиотека кодирования : x264 core 152 r2851kMod ba24899
Настройки программы : cabac=1 / ref=15 / deblock=1:-2:-2 / analyse=0x3:0x113 / me=umh / subme=11 / psy=1 / fade_compensate=0.00 / psy_rd=1.00:0.05 / mixed_ref=1 / me_range=48 / chroma_me=1 / trellis=2 / 8x8dct=1 / cqm=0 / deadzone=21,11 / fast_pskip=0 / chroma_qp_offset=-3 / threads=12 / lookahead_threads=3 / sliced_threads=0 / nr=0 / decimate=0 / interlaced=0 / bluray_compat=0 / constrained_intra=0 / bframes=10 / b_pyramid=2 / b_adapt=2 / b_bias=0 / direct=3 / weightb=1 / open_gop=0 / weightp=2 / keyint=250 / keyint_min=25 / scenecut=40 / intra_refresh=0 / rc_lookahead=40 / rc=2pass / mbtree=0 / bitrate=3000 / ratetol=1.0 / qcomp=0.60 / qpmin=0 / qpmax=39 / qpstep=4 / cplxblur=20.0 / qblur=0.5 / vbv_maxrate=50000 / vbv_bufsize=62500 / nal_hrd=none / filler=0 / ip_ratio=1.15 / pb_ratio=1.30 / aq=1:0.90
Язык : English
Default : Да
Forced : Нет
Цветовой диапазон : Limited
Основные цвета : BT.601 PAL
Характеристики трансфера : BT.470 System B, BT.470 System G
Коэффициенты матрицы : BT.470 System B, BT.470 System G

Аудио #1
Идентификатор : 2
Формат : AC-3
Формат/Информация : Audio Coding 3
Параметр Endianness формата : Big
Идентификатор кодека : A_AC3
Продолжительность : 1 ч. 20 м.
Вид битрейта : Постоянный
Битрейт : 448 Кбит/сек
Каналы : 6 каналов
Расположение каналов : Front: L C R, Side: L R, LFE
Частота : 48,0 КГц
Частота кадров : 31,250 кадров/сек (1536 SPF)
Битовая глубина : 16 бит
Метод сжатия : С потерями
Размер потока : 257 Мбайт (12%)
Язык : Russian
Default : Да
Forced : Нет

Аудио #2
Идентификатор : 3
Формат : AC-3
Формат/Информация : Audio Coding 3
Параметр Endianness формата : Big
Идентификатор кодека : A_AC3
Продолжительность : 1 ч. 20 м.
Вид битрейта : Постоянный
Битрейт : 192 Кбит/сек
Каналы : 2 канала
Расположение каналов : Front: L R
Частота : 48,0 КГц
Частота кадров : 31,250 кадров/сек (1536 SPF)
Битовая глубина : 16 бит
Метод сжатия : С потерями
Размер потока : 110 Мбайт (5%)
Язык : Estonian
Default : Нет
Forced : Нет

Меню
00:00:00.000 : en:Chapter 1
00:04:47.520 : en:Chapter 2
00:08:27.360 : en:Chapter 3
00:12:32.640 : en:Chapter 4
00:17:46.560 : en:Chapter 5
00:22:25.440 : en:Chapter 6
00:28:11.040 : en:Chapter 7
00:34:27.840 : en:Chapter 8
00:42:25.920 : en:Chapter 9
00:51:24.480 : en:Chapter 10
00:56:15.840 : en:Chapter 11
00:59:58.080 : en:Chapter 12
01:06:42.240 : en:Chapter 13
01:12:26.880 : en:Chapter 14
01:15:56.640 : en:Chapter 15
01:19:49.440 : en:Chapter 16



Скачать Отель."У.погибшего.альпиниста".Hukkunud.Alpinisti.hotell.(Григорий.Кроманов).[1979.фантастика.детектив.DVDRip-AVC].[Советский.дубляж]+[Эстонский].torrent без регистрации
Золото ЗОЛОТАЯ РАЗДАЧА! СКАЧАННОЕ НЕ ЗАСЧИТЫВАЕТСЯ! Золото
Дата: Зарегистрирован   [ Тип: внешний ] Как тут cкачать?
MAGNET ссылка
MAGNET ссылка


Скачать .torrent

11 KB

Статус: проверено DHT
Скачан: торрент - 39 раз, раздача полностью - 17 раз
Размер: 2,04 GB
Оценка:  - (Голосов: 0)
Поблагодарили: 0
Поделиться ссылкой на эту раздачу с друзьями:
В контактеFacebookОдноклассникиTwitterLivejournalМой МирLiveinternet
 

 
Показать сообщения:    


Вы не можете начинать темы
Вы не можете отвечать на сообщения
Вы не можете редактировать свои сообщения
Вы не можете удалять свои сообщения
Вы не можете голосовать в опросах
Вы не можете прикреплять файлы к сообщениям
Вы можете скачивать файлы